BitTorrentTracker PerecTracker.org
BitTorrentTracker PerecTracker.org
    
Регистрация  ·  Вход
 
 · 
Забыли пароль?

  • Семь человек с этого момента / Seven Men from Now (1956) DVDRip [H.264]

    Ответить на тему
     
    Автор Сообщение

    Abbastar

    Создавать темы 09-Ноя-2014 07:42

           

    [Цитировать]

    -Семь человек с этого момента / Seven Men from Now (1956) DVDRip [H.264]-Год выпуска: 1956
    Жанр: Вестерн
    Производство: США / Batjac Productions
    Описание фильма:
    Бен Страйд, бывший шериф города Силвер Спрингс, преследует семерых человек, повинных в убийстве его жены во время ограбления офиса компании Уэллс Фарго.
    Режиссер: Бадд Боттичер
    Сценарий: Берт Кеннеди
    Продюсер: Эндрю В. МакЛаглен, Роберт Э. Моррисон, Джон Уэйн
    Актеры: Рэндольф Скотт, Гэйл Расселл, Ли Марвин, Уолтер Рид, Джон Ларч, Дон ’Красный’ Бэрри, Фред Грэхэм, Джон Берадино, Джон Филлипс, Чак Роберсон
    Продолжительность: 01:14:51
    Качество видео: DVDRip
    Перевод: Многоголосый закадровый
    Субтитры: Отсутствуют


    Дата мировой премьеры: 4 августа 1956
    Видеокодек: MPEG-4 AVC/H.264
    Битрейт видео: ~1900 Кбит/сек
    Размер кадра: 720x400
    Аудиокодек: AC3 2.0
    Битрейт аудио: 192 Кбит/сек

    MediaInfo:

    Общее
    Уникальный идентификатор : 223320805668592583705359170817056435009 (0xA80205CEA16E1187BBA7EBCF6D19EB41)
    Полное имя : F:\Downloads\Семь человек с этого момента.mkv
    Формат : Matroska
    Версия формата : Version 4 / Version 2
    Размер файла : 1,09 Гбайт
    Продолжительность : 1 ч. 14 м.
    Общий поток : 2094 Кбит/сек
    Дата кодирования : UTC 2014-11-06 22:25:30
    Программа кодирования : mkvmerge v7.0.0 ('Where We Going') 32bit built on Jun 9 2014 15:08:34
    Библиотека кодирования : libebml v1.3.0 + libmatroska v1.4.1
    DURATION : 01:14:51.072000000
    NUMBER_OF_FRAMES : 140346
    NUMBER_OF_BYTES : 107785728
    _STATISTICS_WRITING_APP : mkvmerge v7.0.0 ('Where We Going') 32bit built on Jun 9 2014 15:08:34
    _STATISTICS_WRITING_DATE_UTC : 2014-11-06 22:25:30
    _STATISTICS_TAGS : BPS DURATION NUMBER_OF_FRAMES NUMBER_OF_BYTES
    Видео
    Идентификатор : 1
    Формат : AVC
    Формат/Информация : Advanced Video Codec
    Профиль формата : [url=mailto:High@L3.1]High@L3.1[/url]
    Параметр CABAC формата : Да
    Параметр ReFrames формата : 8 кадров
    Идентификатор кодека : V_MPEG4/ISO/AVC
    Продолжительность : 1 ч. 14 м.
    Битрейт : 1900 Кбит/сек
    Ширина : 720 пикселей
    Высота : 400 пикселей
    Соотношение сторон : 16:9
    Режим частоты кадров : Постоянный
    Частота кадров : 25,000 кадров/сек
    Цветовое пространство : YUV
    Субдискретизация насыщенности : 4:2:0
    Битовая глубина : 8 бит
    Тип развёртки : Прогрессивная
    Бит/(Пиксели*Кадры) : 0.264
    Размер потока : 996 Мбайт (89%)
    Заголовок : Seven Men from Now
    Библиотека кодирования : x264 core 125 r2208 d9d2288
    Настройки программы : cabac=1 / ref=8 / deblock=1:-1:-1 / analyse=0x3:0x133 / me=umh / subme=9 / psy=1 / psy_rd=1.00:0.10 / mixed_ref=1 / me_range=32 / chroma_me=1 / trellis=2 / 8x8dct=1 / cqm=0 / deadzone=21,11 / fast_pskip=0 / chroma_qp_offset=-3 / threads=6 / lookahead_threads=1 / sliced_threads=0 / nr=0 / decimate=1 / interlaced=0 / bluray_compat=0 / constrained_intra=0 / bframes=3 / b_pyramid=2 / b_adapt=2 / b_bias=0 / direct=3 / weightb=1 / open_gop=0 / weightp=2 / keyint=250 / keyint_min=25 / scenecut=40 / intra_refresh=0 / rc_lookahead=60 / rc=2pass / mbtree=1 / bitrate=1900 / ratetol=1.0 / qcomp=0.60 / qpmin=0 / qpmax=69 / qpstep=4 / cplxblur=20.0 / qblur=0.5 / ip_ratio=1.40 / aq=1:1.00
    Язык : English
    Default : Да
    Forced : Нет
    Аудио
    Идентификатор : 2
    Формат : AC-3
    Формат/Информация : Audio Coding 3
    Расширение режима : CM (complete main)
    Параметр Endianness формата : Big
    Идентификатор кодека : A_AC3
    Продолжительность : 1 ч. 14 м.
    Вид битрейта : Постоянный
    Битрейт : 192 Кбит/сек
    Каналы : 2 канала
    Расположение каналов : Front: L R
    Частота : 48,0 КГц
    Битовая глубина : 16 бит
    Метод сжатия : С потерями
    Размер потока : 103 Мбайт (9%)
    Заголовок : Многоголосый закадровый
    Язык : Russian
    Default : Да
    Forced : Нет
    Скриншоты:

    Дополнительные скриншоты:

    Время раздачи: с 14:00 до 02:00 по Москве (выходные круглосуточно), до 10 скачавших
    Скачать .torrent

    Скачать торрент-файл бесплатно и на максимальной скорости!

    Как скачивать? · Что такое торрент? · Рейтинг и ограничения

    !ВНИМАНИЕ!
    Сайт не распространяет и не хранит электронные версии произведений, а занимается лишь лишь предоставлением доступа к создаваемому пользователями каталогу ссылок на торрент-файлы, которые содержат только списки хеш-сумм, убедительная просьба с жалобами обращаться напрямую к пользователю. Файлы для обмена на трекере предоставлены пользователями сайта, и администрация не несёт ответственности за их содержание. Просьба не заливать файлы, защищенные авторскими правами, а также файлы нелегального содержания!


    _________________
    [Профиль] [ЛС]
    Показать сообщения:    
    Ответить на тему

    Текущее время: Сегодня, в 14:39

    Часовой пояс: GMT + 2



    Вы не можете начинать темы
    Вы не можете отвечать на сообщения
    Вы не можете редактировать свои сообщения
    Вы не можете удалять свои сообщения
    Вы не можете голосовать в опросах
    Вы не можете прикреплять файлы к сообщениям
    Вы не можете скачивать файлы