BitTorrentTracker PerecTracker.org
BitTorrentTracker PerecTracker.org
    
Регистрация  ·  Вход
 
 · 
Забыли пароль?

  • Что знает Оливия? / Оливия Киттеридж / Olive Kitteridge / Сезон: 1 / Серии: 1-4 из 4 (Лиза Холоденко / Lisa Cholodenko) [2014, драма, HDTVRip] MVO (Amedia) + Original

    Ответить на тему
     
    Автор Сообщение

    Columb

    Создавать темы 08-Ноя-2014 10:41

           

    [Цитировать]

    Что знает Оливия? / Оливия Киттеридж / Olive Kitteridge
    Год выпуска: 2014
    Страна: США
    Жанр: драма
    Продолжительность: 04:00:00
    Перевод: Профессиональный (многоголосый закадровый) Amedia
    Русские субтитры: нет
    Режиссёр: Лиза Холоденко / Lisa Cholodenko
    В ролях: Фрэнсис МакДорманд, Ричард Дженкинс, Джон Галлахер мл., Зои Казан, Билл Мюррэй, Марта Вейнрайт, Кен Чизман, Девин Друид, Аманда Гуд Хеннесси, Джон Т. Маллен и др.
    Описание: Тринадцать связанных между собой рассказов, главным героем которых является грубая, строгая и бесчувственная пенсионерка Оливия Киттридж, чьими глазами показана жизнь небольшого рыбацкого городка Кросби. Конечно, Кросби, как большинство тихих на первый взгляд поселений, имеет свои пугающие секреты и страшные тайны.
    Sample
    Релиз:

    Качество: HDTVRip
    Формат: AVI
    Видео: Xvid 720x400 25fps 2009kbps
    Аудио 1: Dolby AC3 48000Hz stereo 192kbps
    Аудио 2: Dolby AC3 48000Hz stereo 192kbps

    MediaInfo

    General
    Complete name : D:\Фильмы\Olive.Kitteridge.s01.Amd\Olive.Kitteridge.s01e01-02.rus.eng.CasStudio.TV.avi
    Format : AVI
    Format/Info : Audio Video Interleave
    File size : 1.92 GiB
    Duration : 1h 53mn
    Overall bit rate : 2 408 Kbps
    Writing application : VirtualDubModRus 1.5.10.2 (build 2542/release)
    Writing library : VirtualDubMod build 2542/release
    Video
    ID : 0
    Format : MPEG-4 Visual
    Format profile : Advanced Simple@L5
    Format settings, BVOP : 1
    Format settings, QPel : No
    Format settings, GMC : No warppoints
    Format settings, Matrix : Default (MPEG)
    Codec ID : XVID
    Codec ID/Hint : XviD
    Duration : 1h 53mn
    Bit rate : 2 009 Kbps
    Width : 720 pixels
    Height : 400 pixels
    Display aspect ratio : 16:9
    Frame rate : 25.000 fps
    Color space : YUV
    Chroma subsampling : 4:2:0
    Bit depth : 8 bits
    Scan type : Progressive
    Compression mode : Lossy
    Bits/(Pixel*Frame) : 0.279
    Stream size : 1.60 GiB (83%)
    Writing library : XviD 65
    Audio #1
    ID : 1
    Format : AC-3
    Format/Info : Audio Coding 3
    Mode extension : CM (complete main)
    Format settings, Endianness : Big
    Codec ID : 2000
    Duration : 1h 53mn
    Bit rate mode : Constant
    Bit rate : 192 Kbps
    Channel(s) : 2 channels
    Channel positions : Front: L R
    Sampling rate : 48.0 KHz
    Bit depth : 16 bits
    Compression mode : Lossy
    Stream size : 157 MiB (8%)
    Alignment : Split accross interleaves
    Interleave, duration : 40 ms (1.00 video frame)
    Interleave, preload duration : 500 ms
    Audio #2
    ID : 2
    Format : AC-3
    Format/Info : Audio Coding 3
    Mode extension : CM (complete main)
    Format settings, Endianness : Big
    Codec ID : 2000
    Duration : 1h 53mn
    Bit rate mode : Constant
    Bit rate : 192 Kbps
    Channel(s) : 2 channels
    Channel positions : Front: L R
    Sampling rate : 48.0 KHz
    Bit depth : 16 bits
    Compression mode : Lossy
    Stream size : 157 MiB (8%)
    Alignment : Split accross interleaves
    Interleave, duration : 40 ms (1.00 video frame)
    Interleave, preload duration : 500 ms

    Скриншоты

    Скачать .torrent

    Скачать торрент-файл бесплатно и на максимальной скорости!

    Как скачивать? · Что такое торрент? · Рейтинг и ограничения

    !ВНИМАНИЕ!
    Сайт не распространяет и не хранит электронные версии произведений, а занимается лишь лишь предоставлением доступа к создаваемому пользователями каталогу ссылок на торрент-файлы, которые содержат только списки хеш-сумм, убедительная просьба с жалобами обращаться напрямую к пользователю. Файлы для обмена на трекере предоставлены пользователями сайта, и администрация не несёт ответственности за их содержание. Просьба не заливать файлы, защищенные авторскими правами, а также файлы нелегального содержания!

    [Профиль] [ЛС]
    Показать сообщения:    
    Ответить на тему

    Текущее время: Сегодня, в 22:39

    Часовой пояс: GMT + 2



    Вы не можете начинать темы
    Вы не можете отвечать на сообщения
    Вы не можете редактировать свои сообщения
    Вы не можете удалять свои сообщения
    Вы не можете голосовать в опросах
    Вы не можете прикреплять файлы к сообщениям
    Вы не можете скачивать файлы