BitTorrentTracker PerecTracker.org
BitTorrentTracker PerecTracker.org
    
Регистрация  ·  Вход
 
 · 
Забыли пароль?

  • Доктор Плюшева / Doc McStuffins / Сезон: 2 / Серии: 1-26 из 26 (Нортон Вирген, Мария Эстрада / Norton Virgien, Maria Estrada) [2012-2014, мультсериал, детский, SATRip] Dub

    Ответить на тему
     
    Автор Сообщение

    Columb

    Создавать темы 08-Ноя-2014 10:27

           

    [Цитировать]

    Доктор Плюшева / Doc McStuffins-Страна: США, Ирландия
    Жанр: комедия, приключения, семейный
    Продолжительность серии: ~ 23 минуты
    Год выпуска: 2013-2014
    Перевод: Профессиональный (дублированный) Студия Кипарис
    Русские субтитры: нет
    -Режиссёр: Нортон Вирген, Мария Эстрада / Norton Virgien, Maria Estrada
    Роли дублировали: Анастасия Лебедина, Лиза Мартиросова, Андрей Бархударов, Ольга Голованова, Антон Савенков, Фёдор Дахненко, Артур Юсупов-Описание: Хорошим врачом может быть даже ребенок. Главное — желание помочь близким. В этом уверена 6-летняя героиня мультсериала Дотти, зовущая себя Доктор Плюшева, которая просто обожает свои игрушки. Стоит ей только поднести к ним стетоскоп, и они оживают!
    Теперь плюшевых зверей можно спросить о самочувствии, измерить им температуру и выписать рецепты, как настоящим пациентам. Вместе с помощниками — драконом Стаффи, овечкой Лэмми и бегемотиком Хэлли — Дотти каждый день учится соблюдать гигиену, правильно питаться и укреплять здоровье.- | Семпл-Качество: SATRip
    Формат: AVI
    Видео: 640x480 (1.33:1), 25 fps, XviD build 65 ~1502 kbps avg, 0.20 bit/pixel
    Аудио: 48 kHz, AC3 Dolby Digital, 2/0 (L,R) ch, ~192 kbps Русский
    Субтитры: отсутствуют-

    Список серий


    s2e01. Мобильная доктор Плюшева + Яблоко от яблони (Doc McStuffins Goes McMobile + Chip Off the Ol' Box)
    s2e02. Крутая рука крутого парня + Овечка и джем (Awesome Guy's Awesome Arm + Lamb in a Jam)
    s2e03. Диагноз неясен + Сломанный хвост Бронти (Diagnosis Not Even Close-Is + Bronty's Twisted Tail)
    s2e04. Фея Фрида вновь обретает крылья + Сказка о двух драконах (Frida Fairy Flies Again + A Tale of Two Dragons)
    s2e05. Розовый снеговик + Мы все больны футболом (Think Pink + You Foose, You Lose)
    s2e06. Луау для Дэйлани + Кенгуру-каратисты (Leilani's Lu'au + Karate Kangaroos)
    s2e07. Док спешит на помощь + Берегите голову (Doc to the Rescue + Don't Knock the Noggin)
    s2e08. Диско-Дейзи + Братья-планёры (Disco Dress Up Daisy + The Glider Brothers)
    s2e09. Кирби и король + Мартышка, прочисть нос! (Kirby and the King + Bubble Monkey, Blow Your Nose!)
    s2e10. Профессор Блин + Смейтесь до упаду (Professor Pancake + You Crack Me Up)
    s2e11. Рождество с Плюшевыми (A Very McStuffins Christmas)
    s2e12. На приёме у доктора + Крошка Яйцо перегрелся (The Doctor Will See You Now + L'il Egghead Feels the Heat)
    s2e13. Ночёвка в гостях + Самый чудесный гепард на свете (The Big Sleepover + No Sweetah Cheetah)
    s2e14. Зазнайка Хэлли + Персик, прими ванну! (Big Head Hallie + Peaches Pie, Take a Bath!)
    s2e15. Неземная Селест + Беги док, беги! (Celestial Celeste + Run, Doc, Run!)
    s2e16. Фееричный узел + Рози - спасатель (A Fairy Big Knot + Rosie the Rescuer)
    s2e17. Ну и ну! Это же Лесной Уилл! + Великолепная южанка Сэл (Crikey! It's Wildlife Will! + Rootin' Tootin' Southwest Sal)
    s2e18. Док на работе у мамы + Мотоцикл Звездопроходца (Take Your Doc To Work Day + Blazer's Bike)
    s2e19. Большой шторм + Шприци-Мици (The Big Storm + Spritzy Mitzi)
    s2e20. Папина любимая игрушка + Друг Чилли (Dad's Favorite Toy + Chilly and the Dude)
    s2e21. Сэр Кирби и храбрая принцесса + Брызгучий Змей Сэм (Sir Kirby and the Plucky Princess + Serpent Sam Makes a Splash)
    s2e22. Злой король и плохая королева + Поднимайся-разминайся (The Wicked King and the Mean Queen + Take a Stroll)
    s2e23. Липкий Луи даёт течь + У тебя в животике король! (Oooey Gablooey Springs A Leak + There's a King in Your Tummy)
    s2e24. День, полный забот + По ту сторону закона (Doc's Busy Day + Wrong Side of the Law)
    s2e25. Свет мой, зеркальце-пингвин + Прятки-пугалки (Mirror, Mirror on My Penguin + Hide and Eek!)
    s2e26. Медучилище Доктора Плюшевой + Невероятные супер-ультра-прыгуны (McStuffins School of Medicine + The Super Amazing Ultra Hoppers)

    Скриншоты

    Отчет MI

    GeneralComplete name : Doc McStuffins_s02_[640x480]_Olu6ka\s2e01. Мобильная доктор Плюшева + Яблоко от яблони.aviFormat : AVIFormat/Info : Audio Video InterleaveFile size : 282 MiBDuration : 23mn 5sOverall bit rate : 1 704 KbpsWriting application : VirtualDubMod 1.5.10.3Writing library : VirtualDubMod build 2550/release
    VideoID : 0Format : MPEG-4 VisualFormat profile : Advanced Simple@L5Format settings, BVOP : 1Format settings, QPel : NoFormat settings, GMC : No warppointsFormat settings, Matrix : CustomCodec ID : XVIDCodec ID/Hint : XviDDuration : 23mn 5sBit rate : 1 503 KbpsWidth : 640 pixelsHeight : 480 pixelsDisplay aspect ratio : 4:3Frame rate : 25.000 fpsColor space : YUVChroma subsampling : 4:2:0Bit depth : 8 bitsScan type : ProgressiveCompression mode : LossyBits/(Pixel*Frame) : 0.196Stream size : 248 MiB (88%)Writing library : XviD 65
    AudioID : 1Format : AC-3Format/Info : Audio Coding 3Mode extension : CM (complete main)Format settings, Endianness : BigCodec ID : 2000Duration : 23mn 5sBit rate mode : ConstantBit rate : 192 KbpsChannel count : 2 channelsChannel positions : Front: L RSampling rate : 48.0 KHzBit depth : 16 bitsCompression mode : LossyStream size : 31.7 MiB (11%)Alignment : Split accross interleavesInterleave, duration : 40 ms (1.00 video frame)Interleave, preload duration : 500 ms
    Скачать .torrent

    Скачать торрент-файл бесплатно и на максимальной скорости!

    Как скачивать? · Что такое торрент? · Рейтинг и ограничения

    !ВНИМАНИЕ!
    Сайт не распространяет и не хранит электронные версии произведений, а занимается лишь лишь предоставлением доступа к создаваемому пользователями каталогу ссылок на торрент-файлы, которые содержат только списки хеш-сумм, убедительная просьба с жалобами обращаться напрямую к пользователю. Файлы для обмена на трекере предоставлены пользователями сайта, и администрация не несёт ответственности за их содержание. Просьба не заливать файлы, защищенные авторскими правами, а также файлы нелегального содержания!

    [Профиль] [ЛС]
    Показать сообщения:    
    Ответить на тему

    Текущее время: Сегодня, в 22:18

    Часовой пояс: GMT + 2



    Вы не можете начинать темы
    Вы не можете отвечать на сообщения
    Вы не можете редактировать свои сообщения
    Вы не можете удалять свои сообщения
    Вы не можете голосовать в опросах
    Вы не можете прикреплять файлы к сообщениям
    Вы не можете скачивать файлы