BitTorrentTracker PerecTracker.org
BitTorrentTracker PerecTracker.org
    
Регистрация  ·  Вход
 
 · 
Забыли пароль?

  • Башня Дьявола / Devil's Tower (Оуэн Тут / Owen Tooth) [2014, Великобритания, ужасы, HDRip] VO (Ворон) + Original Eng

    Ответить на тему
     
    Автор Сообщение

    Columb

    Создавать темы 08-Ноя-2014 10:24

           

    [Цитировать]

    Башня Дьявола / Devil's Tower
    Страна: Великобритания
    Жанр: ужасы
    Год выпуска: 2014
    Продолжительность: 01:24:08
    Перевод: Одноголосый закадровый Ворон
    Cубтитры: нет
    Оригинальная аудиодорожка: английский
    Режиссер: Оуэн Тут / Owen Tooth
    В ролях: Джейсон Мьюз, Роксанна Паллетт, Фрэнсис Руффель, Джессика Джейн Клемент, Эмма Бакли, Квеку Амоа, Питер Баррет, Джейсон Томас Браун, Элисон Кэрролл
    Описание: Не все было просто в жизни молодой девушки Сары, а особенно не складывались ее отношения с матерью, которая ее постоянно унижала и оскорбляла, и теперь Сара наконец-то вырвалась из оков своей прежней жизни, и поселилась в многоквартирном доме. Теперь девушка надеется начать новую жизнь, вот только в ее квартире появляется мстительный призрак война орды, зомби проявляет особый интерес к молодой особе и поэтому ей придется вступить в бой за выживание.
    Доп. информация:

    Сэмпл: http://multi-up.com/1011755
    Качество видео: HDRip
    Формат видео: AVI
    Видео: 720x304 (2.37:1), 24 fps, XviD MPEG-4 ~1793 kbps avg, 0.34 bit/pixel
    Аудио: 48 kHz, MPEG Layer 3, 2 ch, ~192.00 kbps avg Rus
    Аудио 2: 48 kHz, MPEG Layer 3, 2 ch, ~320.00 kbps avg Eng

    MediaInfo

    General
    Complete name : C:\Users\Вика\Desktop\Dеvils.Tоwеr.HDRip.2014.avi
    Format : AVI
    Format/Info : Audio Video Interleave
    File size : 1.36 GiB
    Duration : 1h 24mn
    Overall bit rate : 2 320 Kbps
    Writing application : VirtualDubModRus 1.5.10.2 (build 2542/release)
    Writing library : VirtualDubMod build 2542/release
    Video
    ID : 0
    Format : MPEG-4 Visual
    Format profile : Advanced Simple@L5
    Format settings, BVOP : Yes
    Format settings, QPel : No
    Format settings, GMC : No warppoints
    Format settings, Matrix : Default (H.263)
    Codec ID : XVID
    Codec ID/Hint : XviD
    Duration : 1h 24mn
    Bit rate : 1 794 Kbps
    Width : 720 pixels
    Height : 304 pixels
    Display aspect ratio : 2.35:1
    Frame rate : 24.000 fps
    Color space : YUV
    Chroma subsampling : 4:2:0
    Bit depth : 8 bits
    Scan type : Progressive
    Compression mode : Lossy
    Bits/(Pixel*Frame) : 0.342
    Stream size : 1.05 GiB (77%)
    Writing library : XviD 64
    Audio #1
    ID : 1
    Format : MPEG Audio
    Format version : Version 1
    Format profile : Layer 3
    Codec ID : 55
    Codec ID/Hint : MP3
    Duration : 1h 24mn
    Bit rate mode : Constant
    Bit rate : 192 Kbps
    Channel count : 2 channels
    Sampling rate : 48.0 KHz
    Compression mode : Lossy
    Stream size : 116 MiB (8%)
    Alignment : Aligned on interleaves
    Interleave, duration : 42 ms (1.00 video frame)
    Interleave, preload duration : 504 ms
    Writing library : LAME3.99r
    Encoding settings : -m s -V 4 -q 0 -lowpass 18.6 -b 192
    Audio #2
    ID : 2
    Format : MPEG Audio
    Format version : Version 1
    Format profile : Layer 3
    Codec ID : 55
    Codec ID/Hint : MP3
    Duration : 1h 24mn
    Bit rate mode : Constant
    Bit rate : 320 Kbps
    Channel count : 2 channels
    Sampling rate : 48.0 KHz
    Compression mode : Lossy
    Stream size : 193 MiB (14%)
    Alignment : Aligned on interleaves
    Interleave, duration : 42 ms (1.00 video frame)
    Interleave, preload duration : 504 ms
    Writing library : LAME3.99r
    Encoding settings : -m s -V 4 -q 0 -lowpass 20.5

    Скриншоты

    Скачать .torrent

    Скачать торрент-файл бесплатно и на максимальной скорости!

    Как скачивать? · Что такое торрент? · Рейтинг и ограничения

    !ВНИМАНИЕ!
    Сайт не распространяет и не хранит электронные версии произведений, а занимается лишь лишь предоставлением доступа к создаваемому пользователями каталогу ссылок на торрент-файлы, которые содержат только списки хеш-сумм, убедительная просьба с жалобами обращаться напрямую к пользователю. Файлы для обмена на трекере предоставлены пользователями сайта, и администрация не несёт ответственности за их содержание. Просьба не заливать файлы, защищенные авторскими правами, а также файлы нелегального содержания!

    [Профиль] [ЛС]
    Показать сообщения:    
    Ответить на тему

    Текущее время: Сегодня, в 14:42

    Часовой пояс: GMT + 2



    Вы не можете начинать темы
    Вы не можете отвечать на сообщения
    Вы не можете редактировать свои сообщения
    Вы не можете удалять свои сообщения
    Вы не можете голосовать в опросах
    Вы не можете прикреплять файлы к сообщениям
    Вы не можете скачивать файлы