BitTorrentTracker PerecTracker.org
BitTorrentTracker PerecTracker.org
    
Регистрация  ·  Вход
 
 · 
Забыли пароль?

  • Discovery: Восстание машин (серии 1-9) / Discovery: Rise of the Machines (2014) SATRip [обновляемая]

    Ответить на тему
     
    Автор Сообщение

    Abbastar

    Создавать темы 08-Ноя-2014 10:18

           

    [Цитировать]

    -Discovery Channel "Восстание машин" / Discovery Channel "Rise of the Machines" (2014) SATRip-Год выпуска: 2014
    Жанр: Документальный/Познавательный.
    Описание фильма:
    Познакомьтесь с уникальными техническими достижениями со всего мира в новой программе Discovery Channel «Восстание машин». Вы увидите новейшие разработки в области машиностроения, а также настоящих автомобильных «монстров», скрывающих под своими корпусами мощнейшие двигатели, новейшее электронное оснащение, а также уникальные технические решения.
    Режиссер: Peter Gauvain
    Продолжительность: ~00:44:00 на серию
    Качество видео: SATRip
    Перевод: Профессиональный одноголосый закадровый
    Видеокодек: Xvid
    Битрейт видео: 2990 Кбит/сек
    Размер кадра: 720х576 WideScreen
    Аудиокодек: MP3, 2 channels
    Битрейт аудио: 128 Кбит/сек

    1 серия: "Мега Грузовик".

    Двигатель - как у грузового тепловоза, шины высотой в два человеческих роста: таков мега грузовик за 5,5 млн. $.

    2 серия: "Супер Дирижабль".

    В новом выпуске Вас ждет знакомство со сверхскоростным супер-дирижаблем с небывалой грузоподъемностью. Особенность Aeroscraft Dragon Dream – использование технологии RAVB, то есть применение жёсткого каркаса и системы переменной плавучести.

    3 серия: "Гигантский корабль".

    Сегодня Вы узнаете, что скрыто под кожей гигантского корабля, позволяющего перевозить нефтяные платформы.
    50000 тонн, 220 млн. $, таков мега контейнеровоз "Сокровище".
    Команда грузового корабля "Treasure" перевозит нефтяную платформу из Сингапура в Мексиканский залив. Каким образом этот морской гигант остается на плаву?

    4 серия: "Italo AGV".

    "Italo AGV" не зря называют "Феррари на рельсах" – он представляет собой один из самых быстрых поездов в мире и способен развивать скорость до 300 км/ч!
    Почему у него нет локомотивов расположенных на концах поезда и кто придумал помещать двигатели под пол пассажирских вагонов, как устроена эта двухсотметровая пуля??? Узнаем в новом выпуске программы "Восстание машин".

    5 серия: "Вертолет-тяжеловес

    Познакомьтесь с возможностями уникального вертолета, способного поднимать гигантские конструкции и доставлять их на место с невероятной точностью.

    6 серия: "750-тонный экскаватор".

    Изучите один из самых больших экскаваторов в мире - Komatsu PC8000, который за три с небольшим дня может перерыть 27 тыс. тонн меди. Как устроено это технологическое чудо?

    7 серия: "Неудержимый драгстер".

    Компьютерная анимация позволит изучить устройство автомобиля стоимостью 400.000$ и набирающего скорость свыше 500 км/ч.
    Какие технологии позволяют ему быть самым быстрым и самым безопасным?

    8 серия: "Авианосец Рональд Рейган".

    Судно ВМФ США "Рональд Рейган" - это самый большой атомный авианосец в мире. Познакомьтесь с инженерными чудесами под палубой этого морского колосса.

    9 серия: "Airbus A380".

    Загляните в самый большой пассажирский самолет в мире - Airbus A380, и познакомьтесь с технологиями, позволяющими этому гиганту преодолевать 9 тыс. км всего за десять часов.

    МедиаИнфо(тех. параметры всех файлов в раздаче аналогичны):

    Видео
    Идентификатор : 0
    Формат : AVC
    Формат/Информация : Advanced Video Codec
    Профиль формата : [url=mailto:Main@L3.0]Main@L3.0[/url]
    Параметр CABAC формата : Да
    Параметр ReFrames формата : 1 кадр
    Идентификатор кодека : X264
    Идентификатор кодека/Информация : XiWave GNU GPL x264 MPEG-4
    Продолжительность : 43 м.
    Битрейт : 2990 Кбит/сек
    Ширина : 720 пикселей
    Высота : 576 пикселей
    Соотношение сторон : 16:9
    Частота кадров : 25,000 кадров/сек
    Стандарт вещания : PAL
    Цветовое пространство : YUV
    Субдискретизация насыщенности : 4:2:0
    Битовая глубина : 8 бит
    Тип развёртки : Прогрессивная
    Бит/(Пиксели*Кадры) : 0.288
    Размер потока : 940 Мбайт (96%)
    Аудио
    Идентификатор : 1
    Формат : MPEG Audio
    Версия формата : Version 1
    Профиль формата : Layer 3
    Идентификатор кодека : 55
    Идентификатор кодека/Подсказка : MP3
    Продолжительность : 43 м.
    Вид битрейта : Постоянный
    Битрейт : 128 Кбит/сек
    Каналы : 2 канала
    Частота : 44,1 КГц
    Метод сжатия : С потерями
    Размер потока : 40,3 Мбайт (4%)
    Выравнивание : Разделение по промежуткам
    Продолжительность промежутка : 26 мс. (0,65 видеокадр)
    Время предзагрузки промежутка : 127 мс.
    Скриншоты:

    Скриншоты дополнительно:

    Скачать .torrent

    Скачать торрент-файл бесплатно и на максимальной скорости!

    Как скачивать? · Что такое торрент? · Рейтинг и ограничения

    !ВНИМАНИЕ!
    Сайт не распространяет и не хранит электронные версии произведений, а занимается лишь лишь предоставлением доступа к создаваемому пользователями каталогу ссылок на торрент-файлы, которые содержат только списки хеш-сумм, убедительная просьба с жалобами обращаться напрямую к пользователю. Файлы для обмена на трекере предоставлены пользователями сайта, и администрация не несёт ответственности за их содержание. Просьба не заливать файлы, защищенные авторскими правами, а также файлы нелегального содержания!


    _________________
    [Профиль] [ЛС]
    Показать сообщения:    
    Ответить на тему

    Текущее время: Сегодня, в 06:02

    Часовой пояс: GMT + 2



    Вы не можете начинать темы
    Вы не можете отвечать на сообщения
    Вы не можете редактировать свои сообщения
    Вы не можете удалять свои сообщения
    Вы не можете голосовать в опросах
    Вы не можете прикреплять файлы к сообщениям
    Вы не можете скачивать файлы