Register  ·  Log in
Forgot password?

  • Джинн / Jinn (Аджмал Захир Ахмад / Ajmal Zaheer Ahmad) [2014, США, Триллер, DVDRip] VO (Васька Куролесов)

    Reply to topic
    Author Message


    Post 06-Nov-2014 18:26



    Джинн / Jinn
    Страна: США
    Жанр: Триллер
    Год выпуска: 2014
    Продолжительность: 01:37:11
    Перевод: Одноголосый закадровый Васька Куролесов по субтитрам Ворон, специально для картель «ЗЛОЙ СОБАК»
    Cубтитры: нет
    Оригинальная аудиодорожка: нет
    Режиссер: Аджмал Захир Ахмад / Ajmal Zaheer Ahmad
    В ролях: Серинда Свон, Рэй Парк, Уильям Этертон, Сибулла Дин, Фаран Таир, Амин Наземзадех, Миа Гович, Эмбер Вилан, Уолтер Фелан, Дэнни Муни
    Описание: Шон — автомобильный дизайнер, наслаждается идиллической жизнью со своей женой Жасмин. Но однажды он получает загадочное сообщение, которое предупреждает его о надвигающейся опасности и о проклятье, которое преследует его семью из поколения в поколение…
    Качество видео: DVDRip
    Формат видео: AVI
    Видео: 640x272 (2.35:1), XviD build 50~ 875 kbps avg, 24 fps, 0.21 bit/pixel
    Аудио: MP3, 48 kHz 2 ch, 128 Кбит/с
    После титров небольшая концовка.


    Complete name : E:\Jinn.2014_KypoJIecoB.avi
    Format : AVI
    Format/Info : Audio Video Interleave
    File size : 704 MiB
    Duration : 1h 37mn
    Overall bit rate : 1 012 Kbps
    Writing application : VirtualDubMod (build 2540/release)
    Writing library : VirtualDubMod build 2540/release
    Video #0
    ID : 0
    Format : MPEG-4 Visual
    Format profile : Advanced Simple@L5
    Format settings, BVOP : 2
    Format settings, QPel : No
    Format settings, GMC : No warppoints
    Format settings, Matrix : Default (H.263)
    Codec ID : XVID
    Codec ID/Hint : XviD
    Duration : 1h 37mn
    Bit rate : 875 Kbps
    Width : 640 pixels
    Height : 272 pixels
    Display aspect ratio : 2.35:1
    Frame rate : 24.000 fps
    Color space : YUV
    Chroma subsampling : 4:2:0
    Bit depth : 8 bits
    Scan type : Progressive
    Compression mode : Lossy
    Bits/(Pixel*Frame) : 0.209
    Stream size : 608 MiB (86%)
    Writing library : XviD 1.2.1 (UTC 2008-12-04)
    Audio #1
    ID : 1
    Format : MPEG Audio
    Format version : Version 1
    Format profile : Layer 3
    Mode : Joint stereo
    Mode extension : MS Stereo
    Codec ID : 55
    Codec ID/Hint : MP3
    Duration : 1h 37mn
    Bit rate mode : Constant
    Bit rate : 128 Kbps
    Channel(s) : 2 channels
    Sampling rate : 48.0 KHz
    Compression mode : Lossy
    Stream size : 89.0 MiB (13%)
    Alignment : Aligned on interleaves
    Interleave, duration : 42 ms (1.00 video frame)
    Interleave, preload duration : 504 ms

    Скриншот c названием фильма


    Download .torrent

    Download free and at maximum speed!

    How to Download? · What is a torrent? · Ratings and Limitations

    The site does not extend and does not store electronic(digital) versions of products, and only gives access to a reference catalogue created by users on torrent-files which contain only lists of the hash-sums, the earnest entreaty, with complaints(abuse) to access directly to the user. Files for an exchange on tracker are given by users of a site, and the administration does not bear the responsibility for their maintenance. The request to not fill in the files protected by copyrights, and also files of the illegal maintenance!

    [Profile] [PM]
    Display posts from previous:    
    Reply to topic

    The time now is: Today 23:16

    All times are GMT + 3 Hours

    You cannot post new topics in this forum
    You cannot reply to topics in this forum
    You cannot edit your posts in this forum
    You cannot delete your posts in this forum
    You cannot vote in polls in this forum
    You cannot attach files in this forum
    You cannot download files in this forum