BitTorrentTracker PerecTracker.org
BitTorrentTracker PerecTracker.org
    
Регистрация  ·  Вход
 
 · 
Забыли пароль?

  • Джинн / Jinn (Аджмал Захир Ахмад / Ajmal Zaheer Ahmad) [2014, США, Триллер, DVDRip] VO (Васька Куролесов)

    Ответить на тему
     
    Автор Сообщение

    Columb

    Создавать темы 06-Ноя-2014 17:26

           

    [Цитировать]

    Джинн / Jinn
    Страна: США
    Жанр: Триллер
    Год выпуска: 2014
    Продолжительность: 01:37:11
    Перевод: Одноголосый закадровый Васька Куролесов по субтитрам Ворон, специально для картель «ЗЛОЙ СОБАК»
    Cубтитры: нет
    Оригинальная аудиодорожка: нет
    Режиссер: Аджмал Захир Ахмад / Ajmal Zaheer Ahmad
    В ролях: Серинда Свон, Рэй Парк, Уильям Этертон, Сибулла Дин, Фаран Таир, Амин Наземзадех, Миа Гович, Эмбер Вилан, Уолтер Фелан, Дэнни Муни
    Описание: Шон — автомобильный дизайнер, наслаждается идиллической жизнью со своей женой Жасмин. Но однажды он получает загадочное сообщение, которое предупреждает его о надвигающейся опасности и о проклятье, которое преследует его семью из поколения в поколение…
    Сэмпл: http://multi-up.com/1011374
    Качество видео: DVDRip
    Формат видео: AVI
    Видео: 640x272 (2.35:1), XviD build 50~ 875 kbps avg, 24 fps, 0.21 bit/pixel
    Аудио: MP3, 48 kHz 2 ch, 128 Кбит/с
    После титров небольшая концовка.

    MediaInfo

    E:Jinn.2014_KypoJIecoB.avi
    General
    Complete name : E:\Jinn.2014_KypoJIecoB.avi
    Format : AVI
    Format/Info : Audio Video Interleave
    File size : 704 MiB
    Duration : 1h 37mn
    Overall bit rate : 1 012 Kbps
    Writing application : VirtualDubMod 1.5.10.2 (build 2540/release)
    Writing library : VirtualDubMod build 2540/release
    Video #0
    ID : 0
    Format : MPEG-4 Visual
    Format profile : Advanced Simple@L5
    Format settings, BVOP : 2
    Format settings, QPel : No
    Format settings, GMC : No warppoints
    Format settings, Matrix : Default (H.263)
    Codec ID : XVID
    Codec ID/Hint : XviD
    Duration : 1h 37mn
    Bit rate : 875 Kbps
    Width : 640 pixels
    Height : 272 pixels
    Display aspect ratio : 2.35:1
    Frame rate : 24.000 fps
    Color space : YUV
    Chroma subsampling : 4:2:0
    Bit depth : 8 bits
    Scan type : Progressive
    Compression mode : Lossy
    Bits/(Pixel*Frame) : 0.209
    Stream size : 608 MiB (86%)
    Writing library : XviD 1.2.1 (UTC 2008-12-04)
    Audio #1
    ID : 1
    Format : MPEG Audio
    Format version : Version 1
    Format profile : Layer 3
    Mode : Joint stereo
    Mode extension : MS Stereo
    Codec ID : 55
    Codec ID/Hint : MP3
    Duration : 1h 37mn
    Bit rate mode : Constant
    Bit rate : 128 Kbps
    Channel(s) : 2 channels
    Sampling rate : 48.0 KHz
    Compression mode : Lossy
    Stream size : 89.0 MiB (13%)
    Alignment : Aligned on interleaves
    Interleave, duration : 42 ms (1.00 video frame)
    Interleave, preload duration : 504 ms

    Скриншот c названием фильма

    Скриншоты

    Скачать .torrent

    Скачать торрент-файл бесплатно и на максимальной скорости!

    Как скачивать? · Что такое торрент? · Рейтинг и ограничения

    !ВНИМАНИЕ!
    Сайт не распространяет и не хранит электронные версии произведений, а занимается лишь лишь предоставлением доступа к создаваемому пользователями каталогу ссылок на торрент-файлы, которые содержат только списки хеш-сумм, убедительная просьба с жалобами обращаться напрямую к пользователю. Файлы для обмена на трекере предоставлены пользователями сайта, и администрация не несёт ответственности за их содержание. Просьба не заливать файлы, защищенные авторскими правами, а также файлы нелегального содержания!

    [Профиль] [ЛС]
    Показать сообщения:    
    Ответить на тему

    Текущее время: Сегодня, в 10:15

    Часовой пояс: GMT + 2



    Вы не можете начинать темы
    Вы не можете отвечать на сообщения
    Вы не можете редактировать свои сообщения
    Вы не можете удалять свои сообщения
    Вы не можете голосовать в опросах
    Вы не можете прикреплять файлы к сообщениям
    Вы не можете скачивать файлы