BitTorrentTracker PerecTracker.org
BitTorrentTracker PerecTracker.org
    
Регистрация  ·  Вход
 
 · 
Забыли пароль?

  • Тёмная долина / Das finstere Tal / The Dark Valley (Андреас Прохазка / Andreas Prochaska) [2014, Австрия, Германия, вестерн, BDRip] MVO «Позитив»

    Ответить на тему
     
    Автор Сообщение

    Columb

    Создавать темы 06-Ноя-2014 17:13

           

    [Цитировать]

    Тёмная долина / Das finstere Tal / The Dark Valley-Страна: Австрия, Германия / Allegro Film, X-Filme Creative Pool
    Жанр: вестерн
    Год выпуска: 2014
    Продолжительность: 01:54:44
    Перевод: Профессиональный (многоголосый закадровый) «Позитив»
    Cубтитры: нет
    Режиссёр: Андреас Прохазка / Andreas Prochaska
    В ролях: Сэм Райли, Тобиас Моретти, Паула Бир, Хельмут Хеуслер, Мартин Лойтгеб, Йоханнес Николусси, Клеменс Шик, Флориан Брюкнер, Ганс-Михаэль Реберг, Эрвин Штайнхауэр, Франц Ксавер Брюкнер.
    Описание: Тайными путями одинокий всадник пробирается в маленький городок высоко в Альпах. Никто не знает, откуда прибыл незнакомец и чего он хочет. Но в одном жители городка уверены — они не хотят, чтобы он оставался здесь.-Рейтинг
    imdb.com: 7.40 (1 381)
    kinopoisk.ru: 6.716 (1 295)
    -Сэмпл: http://multi-up.com/1011385-Качество видео: BDRip [Das.finstere.Tal.2014.1080p.BD-Remux.Rus.Ger.HDCLUB]
    Формат видео: AVI
    Видео: XviD build 65, 720x304 (2.37:1), 24.000 fps, ~1431 kbps avg, 0.272 bit/pixel
    Аудио: 48 kHz, AC3 Dolby Digital, 3/2 (L,C,R,l,r) + LFE ch, ~384 kbps avg (MVO)
    -

    MediaInfo

    Общее
    Полное имя : D:\Das.finstere.Tal.2014.MVO.BDRip.1,46Gb.XviD.AC3.avi
    Формат : AVI
    Формат/Информация : Audio Video Interleave
    Размер файла : 1,46 Гбайт
    Продолжительность : 1 ч. 54 м.
    Общий поток : 1825 Кбит/сек
    Название фильма : Das finstere Tal / The Dark Valley. 2014
    Режиссёр : Andreas Prochaska
    Дата записи : 27.09.2014
    Программа кодирования : VirtualDubModRus 1.5.10.2 (build 2542/release)
    Библиотека кодирования : VirtualDubMod build 2542/release
    Правообладатель : Rutracker.org
    Примечание : MooN_WalkeR
    Видео
    Идентификатор : 0
    Формат : MPEG-4 Visual
    Профиль формата : Advanced Simple@L5
    Параметр BVOP формата : 1
    Параметр QPel формата : Нет
    Параметр GMC формата : Без точки перехода
    Параметр матрицы формата : Выборочная
    Идентификатор кодека : XVID
    Идентификатор кодека/Подсказка : XviD
    Продолжительность : 1 ч. 54 м.
    Битрейт : 1431 Кбит/сек
    Ширина : 720 пикселей
    Высота : 304 пикселя
    Соотношение сторон : 2,35:1
    Частота кадров : 24,000 кадра/сек
    Цветовое пространство : YUV
    Субдискретизация насыщенности : 4:2:0
    Битовая глубина : 8 бит
    Тип развёртки : Прогрессивная
    Метод сжатия : С потерями
    Бит/(Пиксели*Кадры) : 0.272
    Размер потока : 1,15 Гбайт (78%)
    Библиотека кодирования : XviD 65
    Аудио
    Идентификатор : 1
    Формат : AC-3
    Формат/Информация : Audio Coding 3
    Расширение режима : CM (complete main)
    Параметр Endianness формата : Big
    Идентификатор кодека : 2000
    Продолжительность : 1 ч. 54 м.
    Вид битрейта : Постоянный
    Битрейт : 384 Кбит/сек
    Каналы : 6 каналов
    Расположение каналов : Front: L C R, Side: L R, LFE
    Частота : 48,0 КГц
    Битовая глубина : 16 бит
    Метод сжатия : С потерями
    Размер потока : 315 Мбайт (21%)
    Выравнивание : Разделение по промежуткам
    Продолжительность промежутка : 42 мс. (1,00 видеокадр)
    Время предзагрузки промежутка : 500 мс.
    Заголовок : MVO

    Скриншоты


    Скачать .torrent

    Скачать торрент-файл бесплатно и на максимальной скорости!

    Как скачивать? · Что такое торрент? · Рейтинг и ограничения

    !ВНИМАНИЕ!
    Сайт не распространяет и не хранит электронные версии произведений, а занимается лишь лишь предоставлением доступа к создаваемому пользователями каталогу ссылок на торрент-файлы, которые содержат только списки хеш-сумм, убедительная просьба с жалобами обращаться напрямую к пользователю. Файлы для обмена на трекере предоставлены пользователями сайта, и администрация не несёт ответственности за их содержание. Просьба не заливать файлы, защищенные авторскими правами, а также файлы нелегального содержания!

    [Профиль] [ЛС]
    Показать сообщения:    
    Ответить на тему

    Текущее время: Сегодня, в 21:52

    Часовой пояс: GMT + 2



    Вы не можете начинать темы
    Вы не можете отвечать на сообщения
    Вы не можете редактировать свои сообщения
    Вы не можете удалять свои сообщения
    Вы не можете голосовать в опросах
    Вы не можете прикреплять файлы к сообщениям
    Вы не можете скачивать файлы