BitTorrentTracker PerecTracker.org
BitTorrentTracker PerecTracker.org
    
Регистрация  ·  Вход
 
 · 
Забыли пароль?

  • Двойники / Humshakals (Саджид Кхан / Sajid Khan) [2014, Индия, Комедия, HDRip] MVO + Sub Rus (песни)

    Ответить на тему
     
    Автор Сообщение

    Columb

    Создавать темы 06-Ноя-2014 17:04

           

    [Цитировать]

    Двойники / Humshakals
    -Страна: Индия
    Жанр: Комедия
    Год выпуска: 2014
    Продолжительность: 02:28:45-Перевод: Любительский (многоголосый, закадровый) - ICG
    Субтитры: Есть (только песни)--Режиссер: Саджид Кхан / Sajid Khan-В ролях: Саиф Али Кхан, Ритеш Дешмукх, Бипаша Басу, Таманна Бхатия, Эша Гупта, Рам Капур, Кумуд Пант, Сатиш Шах, Чанки Пандей, Наваб Шах, Акаш Кхурана, Ричард Бэнкс--Описание: Ашок Сингхания - владелец множества компаний. У него есть свой особняк, вертолет, дорогая машина и надежный друг Кумар. И пока отец Ашока лежит в коме, злой дядя Кувар решает избавиться от племянничка и завладеть многомиллионными компаниями. Кувар пойдет на все. Не остановится ни перед чем. Но он не учел одного - у Ашока и Кумара есть двойники!-- | --Качество видео: HDRip
    Формат видео: AVI-Видео: 720x304 (2.37:1), 24.000 fps, XviD build 50 ~1264 kbps avg, 0.24 bit/pixel
    Аудио: 48 kHz, MPEG Layer 3, 2 ch, ~128.00 kbps
    Субтитры: softsub (SRT) - [отдельный файл]--Сэмпл / Sample--Творческая озвучка: ICG (спасибо!)
    Перевод на русский язык: Rummata (спасибо!)
    Риппер: soso4eg---

    Скриншоты

    -

    MI

    General
    Complete name : C:\INDIYA\Dvoyniki.2014.HDRip.XviD.ICG-soso4eg\Dvoyniki.2014.HDRip.XviD.ICG-soso4eg.avi
    Format : AVI
    Format/Info : Audio Video Interleave
    File size : 1.46 GiB
    Duration : 2h 28mn
    Overall bit rate : 1 402 Kbps
    Movie name : Dvoyniki.2014.HDRip.XviD.ICG-soso4eg
    Director : soso4eg
    Writing application : VirtualDubMod 1.5.10.2 (build 2540/release)
    Original source form/Name : Hindi
    Copyright : специально для BitTorrent трекер RuTracker.org (ex torrents.ru)
    Comment : пер. ICG
    Video
    ID : 0
    Format : MPEG-4 Visual
    Format profile : Advanced Simple@L5
    Format settings, BVOP : 1
    Format settings, QPel : No
    Format settings, GMC : No warppoints
    Format settings, Matrix : Default (MPEG)
    Codec ID : XVID
    Codec ID/Hint : XviD
    Duration : 2h 28mn
    Bit rate : 1 265 Kbps
    Width : 720 pixels
    Height : 304 pixels
    Display aspect ratio : 2.35:1
    Frame rate : 24.000 fps
    Color space : YUV
    Chroma subsampling : 4:2:0
    Bit depth : 8 bits
    Scan type : Progressive
    Compression mode : Lossy
    Bits/(Pixel*Frame) : 0.241
    Stream size : 1.31 GiB (90%)
    Writing library : XviD 1.2.1 (UTC 2008-12-04)
    Audio
    ID : 1
    Format : MPEG Audio
    Format version : Version 1
    Format profile : Layer 3
    Mode : Joint stereo
    Mode extension : MS Stereo
    Codec ID : 55
    Codec ID/Hint : MP3
    Duration : 2h 28mn
    Bit rate mode : Constant
    Bit rate : 128 Kbps
    Channel(s) : 2 channels
    Sampling rate : 48.0 KHz
    Compression mode : Lossy
    Stream size : 136 MiB (9%)
    Alignment : Aligned on interleaves
    Interleave, duration : 42 ms (1.00 video frame)
    Interleave, preload duration : 504 ms
    --
    Скачать .torrent

    Скачать торрент-файл бесплатно и на максимальной скорости!

    Как скачивать? · Что такое торрент? · Рейтинг и ограничения

    !ВНИМАНИЕ!
    Сайт не распространяет и не хранит электронные версии произведений, а занимается лишь лишь предоставлением доступа к создаваемому пользователями каталогу ссылок на торрент-файлы, которые содержат только списки хеш-сумм, убедительная просьба с жалобами обращаться напрямую к пользователю. Файлы для обмена на трекере предоставлены пользователями сайта, и администрация не несёт ответственности за их содержание. Просьба не заливать файлы, защищенные авторскими правами, а также файлы нелегального содержания!

    [Профиль] [ЛС]
    Показать сообщения:    
    Ответить на тему

    Текущее время: Сегодня, в 14:27

    Часовой пояс: GMT + 2



    Вы не можете начинать темы
    Вы не можете отвечать на сообщения
    Вы не можете редактировать свои сообщения
    Вы не можете удалять свои сообщения
    Вы не можете голосовать в опросах
    Вы не можете прикреплять файлы к сообщениям
    Вы не можете скачивать файлы