Register  ·  Log in
Forgot password?

  • Двойники / Humshakals (Саджид Кхан / Sajid Khan) [2014, Индия, Комедия, HDRip] MVO + Sub Rus (песни)

    Reply to topic
    Author Message


    Post 06-Nov-2014 18:04



    Двойники / Humshakals
    -Страна: Индия
    Жанр: Комедия
    Год выпуска: 2014
    Продолжительность: 02:28:45-Перевод: Любительский (многоголосый, закадровый) - ICG
    Субтитры: Есть (только песни)--Режиссер: Саджид Кхан / Sajid Khan-В ролях: Саиф Али Кхан, Ритеш Дешмукх, Бипаша Басу, Таманна Бхатия, Эша Гупта, Рам Капур, Кумуд Пант, Сатиш Шах, Чанки Пандей, Наваб Шах, Акаш Кхурана, Ричард Бэнкс--Описание: Ашок Сингхания - владелец множества компаний. У него есть свой особняк, вертолет, дорогая машина и надежный друг Кумар. И пока отец Ашока лежит в коме, злой дядя Кувар решает избавиться от племянничка и завладеть многомиллионными компаниями. Кувар пойдет на все. Не остановится ни перед чем. Но он не учел одного - у Ашока и Кумара есть двойники!-- | --Качество видео: HDRip
    Формат видео: AVI-Видео: 720x304 (2.37:1), 24.000 fps, XviD build 50 ~1264 kbps avg, 0.24 bit/pixel
    Аудио: 48 kHz, MPEG Layer 3, 2 ch, ~128.00 kbps
    Субтитры: softsub (SRT) - [отдельный файл]--Сэмпл / Sample--Творческая озвучка: ICG (спасибо!)
    Перевод на русский язык: Rummata (спасибо!)
    Риппер: soso4eg---




    Complete name : C:\INDIYA\Dvoyniki.2014.HDRip.XviD.ICG-soso4eg\Dvoyniki.2014.HDRip.XviD.ICG-soso4eg.avi
    Format : AVI
    Format/Info : Audio Video Interleave
    File size : 1.46 GiB
    Duration : 2h 28mn
    Overall bit rate : 1 402 Kbps
    Movie name : Dvoyniki.2014.HDRip.XviD.ICG-soso4eg
    Director : soso4eg
    Writing application : VirtualDubMod (build 2540/release)
    Original source form/Name : Hindi
    Copyright : специально для BitTorrent трекер (ex
    Comment : пер. ICG
    ID : 0
    Format : MPEG-4 Visual
    Format profile : Advanced Simple@L5
    Format settings, BVOP : 1
    Format settings, QPel : No
    Format settings, GMC : No warppoints
    Format settings, Matrix : Default (MPEG)
    Codec ID : XVID
    Codec ID/Hint : XviD
    Duration : 2h 28mn
    Bit rate : 1 265 Kbps
    Width : 720 pixels
    Height : 304 pixels
    Display aspect ratio : 2.35:1
    Frame rate : 24.000 fps
    Color space : YUV
    Chroma subsampling : 4:2:0
    Bit depth : 8 bits
    Scan type : Progressive
    Compression mode : Lossy
    Bits/(Pixel*Frame) : 0.241
    Stream size : 1.31 GiB (90%)
    Writing library : XviD 1.2.1 (UTC 2008-12-04)
    ID : 1
    Format : MPEG Audio
    Format version : Version 1
    Format profile : Layer 3
    Mode : Joint stereo
    Mode extension : MS Stereo
    Codec ID : 55
    Codec ID/Hint : MP3
    Duration : 2h 28mn
    Bit rate mode : Constant
    Bit rate : 128 Kbps
    Channel(s) : 2 channels
    Sampling rate : 48.0 KHz
    Compression mode : Lossy
    Stream size : 136 MiB (9%)
    Alignment : Aligned on interleaves
    Interleave, duration : 42 ms (1.00 video frame)
    Interleave, preload duration : 504 ms
    Download .torrent

    Download free and at maximum speed!

    How to Download? · What is a torrent? · Ratings and Limitations

    The site does not extend and does not store electronic(digital) versions of products, and only gives access to a reference catalogue created by users on torrent-files which contain only lists of the hash-sums, the earnest entreaty, with complaints(abuse) to access directly to the user. Files for an exchange on tracker are given by users of a site, and the administration does not bear the responsibility for their maintenance. The request to not fill in the files protected by copyrights, and also files of the illegal maintenance!

    [Profile] [PM]
    Display posts from previous:    
    Reply to topic

    The time now is: Today 05:32

    All times are GMT + 3 Hours

    You cannot post new topics in this forum
    You cannot reply to topics in this forum
    You cannot edit your posts in this forum
    You cannot delete your posts in this forum
    You cannot vote in polls in this forum
    You cannot attach files in this forum
    You cannot download files in this forum