BitTorrentTracker PerecTracker.org
BitTorrentTracker PerecTracker.org
    
Регистрация  ·  Вход
 
 · 
Забыли пароль?

  • Сюрприз для любимого (Андрей Селиванов) [2014 г., Мелодрама, HDTVRip]

    Ответить на тему
     
    Автор Сообщение

    Columb

    Создавать темы 06-Ноя-2014 16:57

           

    [Цитировать]

    Сюрприз для любимого
    Год выпуска: 2014
    Жанр: Мелодрама
    Продолжительность: 01:31:17
    Режиссёр: Андрей Селиванов
    В ролях: Анна Невская, Эдуард Трухменёв, Ирина Антоненко, Диана Енакаева, Евгения Каверау, Андрей Биланов, Михаил Ремизов, Анжелика Пашкова
    Описание: Юля - идеальная жена, домохозяйка и мать двух очаровательных девочек. Самозабвенная забота о любимом муже Алексее, маленьких дочерях и доме наполняет всю ее жизнь, и эта жизнь ее вполне устраивает. Но семейная идиллия разрушается в один момент: невольно Юля узнает о любовной связи Алексея с другой женщиной. И ее жизнь, такая отлаженная и, казалось, незыблемая, превращается в кошмар... Случайное знакомство с успешным бизнесменом Николаем помогает Юле вновь обрести себя и поверить в свои силы. Преодолевая боль от предательства мужа, Юля меняет свою жизнь и меняется сама. Теперь это ухоженная и женственная, умная и предприимчивая, успешная и уверенная в себе женщина - о такой можно только мечтать. Но любит Юля по-прежнему только Алексея, от которого ушла...

    Качество: HDTVRip [Исходник: HDTV (1080i)]
    Формат: AVI
    Видео кодек: XviD
    Аудио кодек: AC3
    Видео: XviD, 2092 Кбит/с, 720x400 (16:9), 25 кадр/с
    Аудио: Русский, Dolby AC3, 48000 Гц, 192 Кбит/с, 2 канала (Стерео)

    Автор рипа - ivandubskoj

    MediaInfo

    General
    Complete name : Syurpriz.dlya.Lyubimogo.2014.HDTVRip.avi
    Format : AVI
    Format/Info : Audio Video Interleave
    File size : 1.46 GiB
    Duration : 1h 31mn
    Overall bit rate : 2 292 Kbps
    Movie name : Сюрприз для любимого (2014) HDTVRip
    Genre : Мелодрама
    Recorded date : 06.11.2014
    Writing application : VirtualDubMod 1.5.10.3 (build 2550/release)
    Writing library : VirtualDubMod build 2550/release
    Copyright : rip by ivandubskoj
    Video
    ID : 0
    Format : MPEG-4 Visual
    Format profile : Advanced Simple@L5
    Format settings, BVOP : 1
    Format settings, QPel : No
    Format settings, GMC : No warppoints
    Format settings, Matrix : Default (MPEG)
    Codec ID : XVID
    Codec ID/Hint : XviD
    Duration : 1h 31mn
    Bit rate : 2 092 Kbps
    Width : 720 pixels
    Height : 400 pixels
    Display aspect ratio : 16:9
    Frame rate : 25.000 fps
    Color space : YUV
    Chroma subsampling : 4:2:0
    Bit depth : 8 bits
    Scan type : Progressive
    Compression mode : Lossy
    Bits/(Pixel*Frame) : 0.291
    Stream size : 1.33 GiB (91%)
    Writing library : XviD 73
    Audio
    ID : 1
    Format : AC-3
    Format/Info : Audio Coding 3
    Mode extension : CM (complete main)
    Codec ID : 2000
    Duration : 1h 31mn
    Bit rate mode : Constant
    Bit rate : 192 Kbps
    Channel(s) : 2 channels
    Channel positions : Front: L R
    Sampling rate : 48.0 KHz
    Bit depth : 16 bits
    Compression mode : Lossy
    Stream size : 125 MiB (8%)
    Alignment : Split accross interleaves
    Interleave, duration : 64 ms (1.60 video frames)
    Interleave, preload duration : 500 ms
    Title : Russian

    Скриншоты



    Скачать .torrent

    Скачать торрент-файл бесплатно и на максимальной скорости!

    Как скачивать? · Что такое торрент? · Рейтинг и ограничения

    !ВНИМАНИЕ!
    Сайт не распространяет и не хранит электронные версии произведений, а занимается лишь лишь предоставлением доступа к создаваемому пользователями каталогу ссылок на торрент-файлы, которые содержат только списки хеш-сумм, убедительная просьба с жалобами обращаться напрямую к пользователю. Файлы для обмена на трекере предоставлены пользователями сайта, и администрация не несёт ответственности за их содержание. Просьба не заливать файлы, защищенные авторскими правами, а также файлы нелегального содержания!

    [Профиль] [ЛС]
    Показать сообщения:    
    Ответить на тему

    Текущее время: Сегодня, в 20:09

    Часовой пояс: GMT + 2



    Вы не можете начинать темы
    Вы не можете отвечать на сообщения
    Вы не можете редактировать свои сообщения
    Вы не можете удалять свои сообщения
    Вы не можете голосовать в опросах
    Вы не можете прикреплять файлы к сообщениям
    Вы не можете скачивать файлы