BitTorrentTracker PerecTracker.org
BitTorrentTracker PerecTracker.org
    
Регистрация  ·  Вход
 
 · 
Забыли пароль?

  • Смерть Сталина. Конец эпохи / Stalin’s Death – The End of an Era [2014, Документальный, история, биография, IPTVRip]

    Ответить на тему
     
    Автор Сообщение

    Columb

    Создавать темы 04-Ноя-2014 17:59

           

    [Цитировать]

    Смерть Сталина. Конец эпохи / Stalin’s Death – The End of an Era
    Дата/Год выпуска: 2014
    Жанр: Документальный, история, биография
    Продолжительность: 00:43:29
    Перевод: Одноголосый закадровый
    Телеканал: Viasat History
    Описание: 3 марта 1953 года умер Иосиф Сталин. Более 1,5 миллиона граждан Советского Союза со всей страны отправляются в Москву, чтобы проститься с великим вождем. С жизнью этого человека была связана целая эпоха в жизни Советского союза, которая неожиданно закончилась, и вызвала мгновенную жесткую борьбу за власть в Кремле. К удивлению большинства, Никита Хрущев становится преемником Сталина. Впервые в этом фильме двойник Сталина, офицеры разведки, сын Никиты Хрущева расскажут о последних днях Иосифа Сталина.
    Доп. информация: IPTVRip by alf62

    качество: IPTVRip
    формат: AVI
    Видео: 720x400 (1.80:1), 25 fps, DivX, 1721 kbps avg, 0.24 bit/pixel
    Аудио: 48 kHz, AC3 Dolby Digital, 2/0 (L,R) ch, ~192.00 kbps avg

    MediaInfo

    Смерть Сталина. Конец эпохи\Smert.Stalina.Konec.jepohi.2014.DivX.IPTVRip.alf62.aviФормат : AVIФормат/Информация : Audio Video InterleaveРазмер файла : 597 МбайтПродолжительность : 43 м.Общий поток : 1919 Кбит/секПрограмма кодирования : VirtualDubModRus 1.5.10.2 (build 2542/release)Библиотека кодирования : VirtualDubMod build 2542/release
    ВидеоИдентификатор : 0Формат : MPEG-4 VisualПрофиль формата : Advanced Simple@L5Параметр BVOP формата : 2Параметр QPel формата : НетПараметр GMC формата : Без точки переходаПараметр матрицы формата : Default (MPEG)Идентификатор кодека : DX50Идентификатор кодека/Подсказка : DivX 5Продолжительность : 43 м.Битрейт : 1718 Кбит/секШирина : 720 пикселейВысота : 400 пикселейСоотношение сторон : 16:9Частота кадров : 25,000 кадров/секЦветовое пространство : YUVСубдискретизация насыщенности : 4:2:0Битовая глубина : 8 битТип развёртки : ПрогрессивнаяМетод сжатия : С потерямиБит/(Пиксели*Кадры) : 0.239Размер потока : 534 Мбайт (89%)Библиотека кодирования : XviD 73
    АудиоИдентификатор : 1Формат : AC-3Формат/Информация : Audio Coding 3Расширение режима : CM (complete main)Параметр Endianness формата : BigИдентификатор кодека : 2000Продолжительность : 43 м.Вид битрейта : ПостоянныйБитрейт : 192 Кбит/секКаналы : 2 каналаРасположение каналов : Front: L RЧастота : 48,0 КГцБитовая глубина : 16 битМетод сжатия : С потерямиРазмер потока : 59,7 Мбайт (10%)Выравнивание : Разделение по промежуткамПродолжительность промежутка : 40 мс. (1,00 видеокадр)Время предзагрузки промежутка : 500 мс.

    Скриншоты



    Скачать .torrent

    Скачать торрент-файл бесплатно и на максимальной скорости!

    Как скачивать? · Что такое торрент? · Рейтинг и ограничения

    !ВНИМАНИЕ!
    Сайт не распространяет и не хранит электронные версии произведений, а занимается лишь лишь предоставлением доступа к создаваемому пользователями каталогу ссылок на торрент-файлы, которые содержат только списки хеш-сумм, убедительная просьба с жалобами обращаться напрямую к пользователю. Файлы для обмена на трекере предоставлены пользователями сайта, и администрация не несёт ответственности за их содержание. Просьба не заливать файлы, защищенные авторскими правами, а также файлы нелегального содержания!

    [Профиль] [ЛС]
    Показать сообщения:    
    Ответить на тему

    Текущее время: Сегодня, в 22:45

    Часовой пояс: GMT + 2



    Вы не можете начинать темы
    Вы не можете отвечать на сообщения
    Вы не можете редактировать свои сообщения
    Вы не можете удалять свои сообщения
    Вы не можете голосовать в опросах
    Вы не можете прикреплять файлы к сообщениям
    Вы не можете скачивать файлы