Register  ·  Log in
Forgot password?

  • Хочу обнять тебя / Dakishimetai: Shinjitsu no monogatari (Акихико Сиота / Akihiko Shiota) [2014, Япония, мелодрама, HDRip] DVO (DeadSno & den904)

    Reply to topic
    Author Message


    Post 04-Nov-2014 18:22



    Хочу обнять тебя / Dakishimetai: Shinjitsu no monogatari
    Страна: Япония
    Жанр: мелодрама
    Год выпуска: 2014
    Продолжительность: 02:02:29
    Перевод: Любительский (двухголосый закадровый) DeadSno & den904
    Cубтитры: нет
    Оригинальная аудиодорожка: нет
    Режиссер: Акихико Сиота / Akihiko Shiota
    В ролях: Кейко Китагава, Рё Нисикидо, Джан Фубуки, Ая Хираяма, Юсукэ Камидзи, Масатака Кубота, Дзюн Кунимура, Такуми Сайто, Эрико Сато, Мегуми Сато
    Описание: История любви девушки на инвалидном кресле, которая не может правильно управлять левой частью своего тела из-за автомобильного происшествия, а также, страдает от нарушений в памяти, и обычного таксиста.
    Доп. информация:

    Качество видео: HDRip
    Формат видео: AVI
    Видео: 720x384 (1.88:1), 23.976 fps, XviD build 50 ~1313 kbps avg, 0.20 bit/pixel
    Аудио: 48 kHz, AC3 Dolby Digital, 3/2 (L,C,R,l,r) + LFE ch, ~384 kbps


    Complete name : C:\Users\Вика\Desktop\Dakishimetai.2014.HDRip.avi
    Format : AVI
    Format/Info : Audio Video Interleave
    File size : 1.46 GiB
    Duration : 2h 2mn
    Overall bit rate : 1 707 Kbps
    Writing application : VirtualDubMod (build 2542/release)
    Writing library : VirtualDubMod build 2542/release
    ID : 0
    Format : MPEG-4 Visual
    Format profile : Advanced Simple@L5
    Format settings, BVOP : Yes
    Format settings, QPel : No
    Format settings, GMC : No warppoints
    Format settings, Matrix : Default (MPEG)
    Codec ID : XVID
    Codec ID/Hint : XviD
    Duration : 2h 2mn
    Bit rate : 1 314 Kbps
    Width : 720 pixels
    Height : 384 pixels
    Display aspect ratio : 1.85:1
    Frame rate : 23.976 fps
    Color space : YUV
    Chroma subsampling : 4:2:0
    Bit depth : 8 bits
    Scan type : Progressive
    Compression mode : Lossy
    Bits/(Pixel*Frame) : 0.198
    Stream size : 1.12 GiB (77%)
    Writing library : XviD 1.2.1 (UTC 2008-12-04)
    ID : 1
    Format : AC-3
    Format/Info : Audio Coding 3
    Mode extension : CM (complete main)
    Format settings, Endianness : Big
    Codec ID : 2000
    Duration : 2h 2mn
    Bit rate mode : Constant
    Bit rate : 384 Kbps
    Channel count : 6 channels
    Channel positions : Front: L C R, Side: L R, LFE
    Sampling rate : 48.0 KHz
    Bit depth : 16 bits
    Compression mode : Lossy
    Stream size : 336 MiB (22%)
    Alignment : Split accross interleaves
    Interleave, duration : 42 ms (1.00 video frame)
    Interleave, preload duration : 500 ms

    Скриншот c названием фильма


    Download .torrent

    Download free and at maximum speed!

    How to Download? · What is a torrent? · Ratings and Limitations

    The site does not extend and does not store electronic(digital) versions of products, and only gives access to a reference catalogue created by users on torrent-files which contain only lists of the hash-sums, the earnest entreaty, with complaints(abuse) to access directly to the user. Files for an exchange on tracker are given by users of a site, and the administration does not bear the responsibility for their maintenance. The request to not fill in the files protected by copyrights, and also files of the illegal maintenance!

    [Profile] [PM]
    Display posts from previous:    
    Reply to topic

    The time now is: Today 12:02

    All times are GMT + 3 Hours

    You cannot post new topics in this forum
    You cannot reply to topics in this forum
    You cannot edit your posts in this forum
    You cannot delete your posts in this forum
    You cannot vote in polls in this forum
    You cannot attach files in this forum
    You cannot download files in this forum