BitTorrentTracker PerecTracker.org
BitTorrentTracker PerecTracker.org
    
Регистрация  ·  Вход
 
 · 
Забыли пароль?

  • Среди мертвых / Dead Within (Бен Вагнер / Ben Wagner) [2014, США, ужасы, триллер, драма, WEB-DLRip] VO

    Ответить на тему
     
    Автор Сообщение

    Columb

    Создавать темы 04-Ноя-2014 17:21

           

    [Цитировать]

    Среди мертвых / Dead Within
    Страна: США
    Жанр: ужасы, триллер, драма
    Год выпуска: 2014
    Продолжительность: 01:22:23
    Перевод: Одноголосый (закадровый) [-den904-] по тексту [Did Andron]
    Оригинальная аудиодорожка: нет
    Cубтитры: нет
    Режиссер: Бен Вагнер / Ben Wagner
    В ролях: Дин Чеквала, Рик Федерман, Дж. Клод Диринг, Эми Кейл Петерсон, Сара МакМастер, Тьяго Де Маседо
    Описание: Действие фильма происходит спустя полгода после начала глобальной эпидемии, уничтожившей человечество. Супружеская пара заперлась в лесной хижине и держит оборону, хотя периодически к ним пытаются прорваться жуткие существа.
    ВНИМАНИЕ! НЕНОРМАТИВНАЯ ЛЕКСИКА
    Сэмпл
    Качество: WEB-DLRip
    Контейнер: AVI
    Видео: : 656x368 (1.78:1), 23.976 fps, XviD build 50 ~1123 kbps avg, 0.19 bit/pixel
    Аудио: 48 kHz, MPEG Layer 3, 2 ch, ~128.00 kbps avg]

    MI

    General
    Complete name : C:\Users\Вячеслав\Downloads\Dead.Within.2014.WEB-DLRip.Некул..avi
    Format : AVI
    Format/Info : Audio Video Interleave
    File size : 743 MiB
    Duration : 1h 22mn
    Overall bit rate : 1 261 Kbps
    Writing application : VirtualDubMod 1.5.10.3 | www.virtualdub-fr.org || (build 2550/release)
    Writing library : VirtualDubMod build 2550/release
    Video
    ID : 0
    Format : MPEG-4 Visual
    Format profile : Advanced Simple@L5
    Format settings, BVOP : 2
    Format settings, QPel : No
    Format settings, GMC : No warppoints
    Format settings, Matrix : Default (MPEG)
    Codec ID : XVID
    Codec ID/Hint : XviD
    Duration : 1h 22mn
    Bit rate : 1 124 Kbps
    Width : 656 pixels
    Height : 368 pixels
    Display aspect ratio : 16:9
    Frame rate : 23.976 fps
    Color space : YUV
    Chroma subsampling : 4:2:0
    Bit depth : 8 bits
    Scan type : Progressive
    Compression mode : Lossy
    Bits/(Pixel*Frame) : 0.194
    Stream size : 662 MiB (89%)
    Writing library : XviD 1.2.1 (UTC 2008-12-04)
    Audio
    ID : 1
    Format : MPEG Audio
    Format version : Version 1
    Format profile : Layer 3
    Codec ID : 55
    Codec ID/Hint : MP3
    Duration : 1h 22mn
    Bit rate mode : Constant
    Bit rate : 128 Kbps
    Channel(s) : 2 channels
    Sampling rate : 48.0 KHz
    Compression mode : Lossy
    Stream size : 75.4 MiB (10%)
    Alignment : Aligned on interleaves
    Interleave, duration : 42 ms (1.00 video frame)
    Interleave, preload duration : 504 ms
    Writing library : LAME3.99r
    Encoding settings : -m s -V 4 -q 2 -lowpass 17 -b 128

    Скриншоты

    Скачать .torrent

    Скачать торрент-файл бесплатно и на максимальной скорости!

    Как скачивать? · Что такое торрент? · Рейтинг и ограничения

    !ВНИМАНИЕ!
    Сайт не распространяет и не хранит электронные версии произведений, а занимается лишь лишь предоставлением доступа к создаваемому пользователями каталогу ссылок на торрент-файлы, которые содержат только списки хеш-сумм, убедительная просьба с жалобами обращаться напрямую к пользователю. Файлы для обмена на трекере предоставлены пользователями сайта, и администрация не несёт ответственности за их содержание. Просьба не заливать файлы, защищенные авторскими правами, а также файлы нелегального содержания!

    [Профиль] [ЛС]
    Показать сообщения:    
    Ответить на тему

    Текущее время: Сегодня, в 06:08

    Часовой пояс: GMT + 2



    Вы не можете начинать темы
    Вы не можете отвечать на сообщения
    Вы не можете редактировать свои сообщения
    Вы не можете удалять свои сообщения
    Вы не можете голосовать в опросах
    Вы не можете прикреплять файлы к сообщениям
    Вы не можете скачивать файлы