BitTorrentTracker PerecTracker.org
BitTorrentTracker PerecTracker.org
    
Регистрация  ·  Вход
 
 · 
Забыли пароль?

  • Деревенщина / Серии 1-4 из 4 (Владимир Устюгов) [2014, мелодрама, HDTVRip 720p]

    Ответить на тему
     
    Автор Сообщение

    Columb

    Создавать темы 03-Ноя-2014 22:34

           

    [Цитировать]

    Деревенщина
    Выпущено: Россия, кинокомпания «Русское»
    Жанр: мелодрама
    Год выпуска: 2014
    Продолжительность: 00:44:30
    Субтитры: нет
    Режиссер: Владимир Устюгов
    В ролях: Анна Михайловская, Александр Константинов, Дмитрий Пчела, Елена Бирюкова, Даша Русакова, Виталий Герасимов, Вера Васильева, Евгений Редько, Марина Есипенко, Вероника Вернадская, Ирина Чипиженко, Эрнст Романов, Антонина Дивина, Ульяна Урванцева, Олег Акулич, Данила Якушев
    Описание: Лида — простая, скромная девушка — живет с матерью в деревне Колпаково и мечтает стать стюардессой. Своего отца она видела лишь однажды — пять лет назад. От той далекой встречи у Лиды остались серебряные сережки — папин подарок — и приглашение приезжать к нему после окончания школы… Когда мать Лиды выходит замуж, девушка понимает, что она лишняя в новой семье, и отправляется в столицу, полная смутных надежд на счастье. Лида попадает в дом к ее отцу — перспективному ученому-химику. Он с радостью пускает героиню в семью, но его рафинированная жена и капризные, избалованные дочки совсем не рады появлению «деревенщины» и намерены избавиться от нее любым способом…

    Автор рипа / записи: fanatus
    Исходник: Запись с телеканала РОССИЯ HD
    Качество: HDTVRip 720p
    Формат: MKV
    Видео кодек: H.264
    Аудио кодек: AC3
    Видео: MPEG-4 AVC, 3855 kbps , 1280x718 (16:9), 25.000 fps, 0.168 bit/pixel
    Аудио: AC3, 2 ch, 48 kHz, 192 kbps

    MediaInfo

    General
    Unique ID : 251088712493063519400440472769442000814 (0xBCE5ED5072EB55A7A056FBE9B572AFAE)
    Complete name : E:\Derevenshhina.(1-4.serii.iz.4).2014.x264.HDTVRip.720p.fanatus\1-2_serija.mkv
    Format : Matroska
    Format version : Version 2
    File size : 2.53 GiB
    Duration : 1h 29mn
    Overall bit rate : 4 048 Kbps
    Movie name : Derevenshhina (2014) - fanatus
    Encoded date : UTC 2014-11-02 20:02:34
    Writing application : mkvmerge v3.4.0 ('Rapunzel') сборка от May 15 2010 09:38:20
    Writing library : libebml v0.8.0 + libmatroska v0.9.0
    Video
    ID : 1
    Format : AVC
    Format/Info : Advanced Video Codec
    Format profile : High@L4.1
    Format settings, CABAC : Yes
    Format settings, ReFrames : 9 frames
    Codec ID : V_MPEG4/ISO/AVC
    Duration : 1h 29mn
    Bit rate : 3 855 Kbps
    Width : 1 280 pixels
    Height : 718 pixels
    Display aspect ratio : 16:9
    Frame rate : 25.000 fps
    Color space : YUV
    Chroma subsampling : 4:2:0
    Bit depth : 8 bits
    Scan type : Progressive
    Bits/(Pixel*Frame) : 0.168
    Stream size : 2.36 GiB (93%)
    Title : 1 serija
    Writing library : x264 core 142 r2479 dd79a61
    Encoding settings : cabac=1 / ref=9 / deblock=1:-3:-3 / analyse=0x3:0x133 / me=umh / subme=11 / psy=1 / psy_rd=1.00:0.10 / mixed_ref=1 / me_range=64 / chroma_me=1 / trellis=2 / 8x8dct=1 / cqm=0 / deadzone=21,11 / fast_pskip=0 / chroma_qp_offset=-3 / threads=16 / lookahead_threads=2 / sliced_threads=0 / nr=0 / decimate=0 / interlaced=0 / bluray_compat=0 / constrained_intra=0 / bframes=9 / b_pyramid=2 / b_adapt=2 / b_bias=0 / direct=3 / weightb=1 / open_gop=0 / weightp=2 / keyint=250 / keyint_min=25 / scenecut=40 / intra_refresh=0 / rc=2pass / mbtree=0 / bitrate=3855 / ratetol=1.0 / qcomp=0.65 / qpmin=0 / qpmax=69 / qpstep=4 / cplxblur=20.0 / qblur=0.5 / ip_ratio=1.40 / pb_ratio=1.30 / aq=1:0.80
    Language : Russian
    Default : Yes
    Forced : No
    Audio
    ID : 2
    Format : AC-3
    Format/Info : Audio Coding 3
    Mode extension : CM (complete main)
    Format settings, Endianness : Big
    Codec ID : A_AC3
    Duration : 1h 29mn
    Bit rate mode : Constant
    Bit rate : 192 Kbps
    Channel(s) : 2 channels
    Channel positions : Front: L R
    Sampling rate : 48.0 KHz
    Bit depth : 16 bits
    Compression mode : Lossy
    Stream size : 123 MiB (5%)
    Language : Russian
    Default : Yes
    Forced : No

    Скриншот c названием фильма

    Скриншоты

    Скачать .torrent

    Скачать торрент-файл бесплатно и на максимальной скорости!

    Как скачивать? · Что такое торрент? · Рейтинг и ограничения

    !ВНИМАНИЕ!
    Сайт не распространяет и не хранит электронные версии произведений, а занимается лишь лишь предоставлением доступа к создаваемому пользователями каталогу ссылок на торрент-файлы, которые содержат только списки хеш-сумм, убедительная просьба с жалобами обращаться напрямую к пользователю. Файлы для обмена на трекере предоставлены пользователями сайта, и администрация не несёт ответственности за их содержание. Просьба не заливать файлы, защищенные авторскими правами, а также файлы нелегального содержания!

    [Профиль] [ЛС]
    Показать сообщения:    
    Ответить на тему

    Текущее время: Сегодня, в 06:00

    Часовой пояс: GMT + 2



    Вы не можете начинать темы
    Вы не можете отвечать на сообщения
    Вы не можете редактировать свои сообщения
    Вы не можете удалять свои сообщения
    Вы не можете голосовать в опросах
    Вы не можете прикреплять файлы к сообщениям
    Вы не можете скачивать файлы