BitTorrentTracker PerecTracker.org
BitTorrentTracker PerecTracker.org
    
Регистрация  ·  Вход
 
 · 
Забыли пароль?

  • Долгий путь домой / Серии: 1-16 из 16 (Ольга Доброва-Куликова) [2014, Мелодрама, экранизация, SATRip]

    Ответить на тему
     
    Автор Сообщение

    Columb

    Создавать темы 03-Ноя-2014 22:31

           

    [Цитировать]

    Долгий путь домой
    Год выпуска: 2014
    Производство: © ООО «Кинокомпания «Джи Пи»», 2014 Группа Компаний GP
    Жанр: Мелодрама, экранизация
    Продолжительность: 00:51:00
    Субтитры: Нет
    Режиссёр: Ольга Доброва-Куликова
    В ролях: Дарья Мороз, Елизавета Боярская, Александр Лазарев (мл.), Артём Ткаченко, Михаил Пшеничный, Евгения Брик, Наталья Суркова, Михаил Евланов, Елизавета Васильева, Дмитрий Комов, Илья Соболев, Кристина Кириллова, Тимур Бондаренко, Александра Булычёва, Элина Богалейша-Делин, Яна Есипович, Юлиана Ромашина (Оррен), Светлана Устинова, Евгений Антропов, Кирилл Гребенщиков, Мириам Сехон, Ольга Лапшина, Ольга Кузина, Олег Васильков, Владимир Капустин, Ёла Санько, Родион Ошедший, Мария Гринько
    Описание: По мотивам романа Светланы Петровой "Беспамятство".
    Действие происходит с начала 80-х и до наших дней. Главная героиня сериала - простая деревенская девушка. Однажды она встречает того единственного мужчину, которого долго ждала... Её дочь - Ляля, проходит долгий и сложный путь. В юности она - избалованная дочь большого чиновника, беззаботная, безалаберная, эгоистичная. Потом судьба преподносит ей испытания и потери, что в корне меняет характер девушки.-Доп. информация: Реклама отсутствует!-Релиз группы:: -Сэмпл: https://cloud.mail.ru/public/5088e002c17e/%D0%94%D0...Rip.by.simka.avi
    Качество: SATRip
    Формат: AVI
    Видео кодек: XviD
    Аудио кодек: MP3
    Видео: 720x400, 25 fps, XviD, ~1400 kbps, 0.229 bit/pixel
    Аудио: 48 kHz, MPEG Layer 3, 2 ch, 192 kbps

    MI

    Общее
    Полное имя : U:\Сериалы (2014)\Долгий путь домой (2014)\Долгий путь домой.(01.seriya).2014.XviD.SATRip.by.simka.avi
    Формат : AVI
    Формат/Информация : Audio Video Interleave
    Размер файла : 544 Мбайт
    Продолжительность : 47 м.
    Общий поток : 1601 Кбит/сек
    Программа кодирования : VirtualDubModRus 1.5.10.2 (build 2542/release)
    Библиотека кодирования : VirtualDubMod build 2542/release
    Видео
    Идентификатор : 0
    Формат : MPEG-4 Visual
    Профиль формата : Advanced Simple@L5
    Параметр BVOP формата : 1
    Параметр QPel формата : Нет
    Параметр GMC формата : Без точки перехода
    Параметр матрицы формата : Default (MPEG)
    Идентификатор кодека : XVID
    Идентификатор кодека/Подсказка : XviD
    Продолжительность : 47 м.
    Битрейт : 1400 Кбит/сек
    Ширина : 720 пикселей
    Высота : 400 пикселей
    Соотношение сторон : 16:9
    Частота кадров : 25,000 кадров/сек
    Цветовое пространство : YUV
    Субдискретизация насыщенности : 4:2:0
    Битовая глубина : 8 бит
    Тип развёртки : Прогрессивная
    Метод сжатия : С потерями
    Бит/(Пиксели*Кадры) : 0.194
    Размер потока : 475 Мбайт (87%)
    Библиотека кодирования : XviD 1.2.1 (UTC 2008-12-04)
    Аудио
    Идентификатор : 1
    Формат : MPEG Audio
    Версия формата : Version 1
    Профиль формата : Layer 3
    Режим : Joint stereo
    Расширение режима : MS Stereo
    Идентификатор кодека : 55
    Идентификатор кодека/Подсказка : MP3
    Продолжительность : 47 м.
    Вид битрейта : Постоянный
    Битрейт : 192 Кбит/сек
    Каналы : 2 канала
    Частота : 48,0 КГц
    Метод сжатия : С потерями
    Размер потока : 65,2 Мбайт (12%)
    Выравнивание : Соединение по промежуткам
    Продолжительность промежутка : 40 мс. (1,00 видеокадр)
    Время предзагрузки промежутка : 504 мс.
    Библиотека кодирования : LAME3.99r
    Настройки программы : -m j -V 4 -q 2 -lowpass 18.6 -b 192

    Скриншоты

    -------------

    Внимание! Раздача ведётся путём добавления новых выпусков

    При каждом добавлении создаётся новый торрент. Чтобы начать докачку нового выпуска, пользователям необходимо сделать следующее:
    ● остановить скачивание;
    ● удалить старый торрент у себя из клиента (старые выпуски удалять не надо);
    ● скачать новый торрент и запустить его у себя в клиенте вместо старого, при этом указать клиенту путь в старую папку куда и должно происходить скачивание новых выпусков;
    ● ваш клиент при запуске должен произвести хеширование (проверку) старой папки (если не производит сам - помогите ему сделать это), и будет докачивать только те выпуски, которых у вас ещё нет. Старые выпуски при этом не удаляются, а продолжают раздаваться!
    ● Eсли вы уже удалили старые выпуски, то предотвратить повторную закачку старых выпусков можно, отжав галочку в соответсвующих местах при запуске нового торрента.
    Добавлена 14-я - 16-я серия!
    Скачать .torrent

    Скачать торрент-файл бесплатно и на максимальной скорости!

    Как скачивать? · Что такое торрент? · Рейтинг и ограничения

    !ВНИМАНИЕ!
    Сайт не распространяет и не хранит электронные версии произведений, а занимается лишь лишь предоставлением доступа к создаваемому пользователями каталогу ссылок на торрент-файлы, которые содержат только списки хеш-сумм, убедительная просьба с жалобами обращаться напрямую к пользователю. Файлы для обмена на трекере предоставлены пользователями сайта, и администрация не несёт ответственности за их содержание. Просьба не заливать файлы, защищенные авторскими правами, а также файлы нелегального содержания!

    [Профиль] [ЛС]
    Показать сообщения:    
    Ответить на тему

    Текущее время: Сегодня, в 18:03

    Часовой пояс: GMT + 2



    Вы не можете начинать темы
    Вы не можете отвечать на сообщения
    Вы не можете редактировать свои сообщения
    Вы не можете удалять свои сообщения
    Вы не можете голосовать в опросах
    Вы не можете прикреплять файлы к сообщениям
    Вы не можете скачивать файлы