Register  ·  Log in
Forgot password?

  • Пахмутова и Добронравов. Мелодия и Орфей (Константин Владимиров) [2014, документальный фильм, DVB]

    Reply to topic
    Author Message


    Post 03-Nov-2014 23:23



    Пахмутова и Добронравов. Мелодия и Орфей
    Страна: Россия
    Телеканал: ТВ Центр
    Режиссёр: Константин Владимиров
    Дата и время первого выхода в эфир: 03.11.2014 14:45
    Жанр: документальный фильм
    Продолжительность: 01:15:09
    Перевод: Не требуется
    Русские субтитры: нет
    Это фильм о любви. О любви большой, долгой и очень красивой. Два творца вместе уже более 50 лет! Александра Пахмутова и Николай Добронравов. Композитор и поэт. Мелодия и Орфей… Участники: Александра Пахмутова, Николай Добронравов, Иосиф Кобзон, Денис Мацуев, Геннадий Хазанов, Ефим Шифрин, Владислав Третьяк, Александр Градский.
    Качество: DVB
    Формат: MPG
    Видео: MPEG2, 720x576 (4:3), 4 000 Kbps, 25 fps
    Аудио: MP2, 48.0 KHz, 192 Kbps (CBR), 2 ch


    GeneralComplete name : D:\2014-11-03_ТВ Центр_Пахмутова и Добронравов. Мелодия и Орфей.mpgFormat : MPEG-PSFile size : 2.13 GiBDuration : 1h 15mnOverall bit rate mode : VariableOverall bit rate : 4 060 Kbps
    VideoID : 224 (0xE0)Format : MPEG VideoFormat version : Version 2Format profile : Main@MainFormat settings, BVOP : YesFormat settings, Matrix : CustomFormat settings, GOP : VariableFormat settings, picture structure : FrameDuration : 1h 15mnBit rate mode : VariableBit rate : 3 787 KbpsMaximum bit rate : 4 000 KbpsWidth : 720 pixelsHeight : 576 pixelsDisplay aspect ratio : 4:3Frame rate : 25.000 fpsStandard : PALColor space : YUVChroma subsampling : 4:2:0Bit depth : 8 bitsScan type : InterlacedScan order : Top Field FirstCompression mode : LossyBits/(Pixel*Frame) : 0.365Time code of first frame : 00:00:00:00Time code source : Group of pictures headerStream size : 1.99 GiB (93%)
    AudioID : 192 (0xC0)Format : MPEG AudioFormat version : Version 1Format profile : Layer 2Duration : 1h 15mnBit rate mode : ConstantBit rate : 192 KbpsChannel(s) : 2 channelsSampling rate : 48.0 KHzCompression mode : LossyStream size : 103 MiB (5%)


    Download .torrent

    Download free and at maximum speed!

    How to Download? · What is a torrent? · Ratings and Limitations

    The site does not extend and does not store electronic(digital) versions of products, and only gives access to a reference catalogue created by users on torrent-files which contain only lists of the hash-sums, the earnest entreaty, with complaints(abuse) to access directly to the user. Files for an exchange on tracker are given by users of a site, and the administration does not bear the responsibility for their maintenance. The request to not fill in the files protected by copyrights, and also files of the illegal maintenance!

    [Profile] [PM]
    Display posts from previous:    
    Reply to topic

    The time now is: Today 01:25

    All times are GMT + 3 Hours

    You cannot post new topics in this forum
    You cannot reply to topics in this forum
    You cannot edit your posts in this forum
    You cannot delete your posts in this forum
    You cannot vote in polls in this forum
    You cannot attach files in this forum
    You cannot download files in this forum