BitTorrentTracker PerecTracker.org
BitTorrentTracker PerecTracker.org
    
Регистрация  ·  Вход
 
 · 
Забыли пароль?

  • Пахмутова и Добронравов. Мелодия и Орфей (Константин Владимиров) [2014, документальный фильм, DVB]

    Ответить на тему
     
    Автор Сообщение

    Columb

    Создавать темы 03-Ноя-2014 22:23

           

    [Цитировать]

    Пахмутова и Добронравов. Мелодия и Орфей
    Страна: Россия
    Телеканал: ТВ Центр
    Режиссёр: Константин Владимиров
    Дата и время первого выхода в эфир: 03.11.2014 14:45
    Жанр: документальный фильм
    Продолжительность: 01:15:09
    Перевод: Не требуется
    Русские субтитры: нет
    Описание:
    Это фильм о любви. О любви большой, долгой и очень красивой. Два творца вместе уже более 50 лет! Александра Пахмутова и Николай Добронравов. Композитор и поэт. Мелодия и Орфей… Участники: Александра Пахмутова, Николай Добронравов, Иосиф Кобзон, Денис Мацуев, Геннадий Хазанов, Ефим Шифрин, Владислав Третьяк, Александр Градский.
    Сэмпл: https://www.sendspace.com/file/fj4njl
    Качество: DVB
    Формат: MPG
    Видео: MPEG2, 720x576 (4:3), 4 000 Kbps, 25 fps
    Аудио: MP2, 48.0 KHz, 192 Kbps (CBR), 2 ch

    MediaInfo

    GeneralComplete name : D:\2014-11-03_ТВ Центр_Пахмутова и Добронравов. Мелодия и Орфей.mpgFormat : MPEG-PSFile size : 2.13 GiBDuration : 1h 15mnOverall bit rate mode : VariableOverall bit rate : 4 060 Kbps
    VideoID : 224 (0xE0)Format : MPEG VideoFormat version : Version 2Format profile : Main@MainFormat settings, BVOP : YesFormat settings, Matrix : CustomFormat settings, GOP : VariableFormat settings, picture structure : FrameDuration : 1h 15mnBit rate mode : VariableBit rate : 3 787 KbpsMaximum bit rate : 4 000 KbpsWidth : 720 pixelsHeight : 576 pixelsDisplay aspect ratio : 4:3Frame rate : 25.000 fpsStandard : PALColor space : YUVChroma subsampling : 4:2:0Bit depth : 8 bitsScan type : InterlacedScan order : Top Field FirstCompression mode : LossyBits/(Pixel*Frame) : 0.365Time code of first frame : 00:00:00:00Time code source : Group of pictures headerStream size : 1.99 GiB (93%)
    AudioID : 192 (0xC0)Format : MPEG AudioFormat version : Version 1Format profile : Layer 2Duration : 1h 15mnBit rate mode : ConstantBit rate : 192 KbpsChannel(s) : 2 channelsSampling rate : 48.0 KHzCompression mode : LossyStream size : 103 MiB (5%)

    Скриншоты

    Скачать .torrent

    Скачать торрент-файл бесплатно и на максимальной скорости!

    Как скачивать? · Что такое торрент? · Рейтинг и ограничения

    !ВНИМАНИЕ!
    Сайт не распространяет и не хранит электронные версии произведений, а занимается лишь лишь предоставлением доступа к создаваемому пользователями каталогу ссылок на торрент-файлы, которые содержат только списки хеш-сумм, убедительная просьба с жалобами обращаться напрямую к пользователю. Файлы для обмена на трекере предоставлены пользователями сайта, и администрация не несёт ответственности за их содержание. Просьба не заливать файлы, защищенные авторскими правами, а также файлы нелегального содержания!

    [Профиль] [ЛС]
    Показать сообщения:    
    Ответить на тему

    Текущее время: Сегодня, в 21:27

    Часовой пояс: GMT + 2



    Вы не можете начинать темы
    Вы не можете отвечать на сообщения
    Вы не можете редактировать свои сообщения
    Вы не можете удалять свои сообщения
    Вы не можете голосовать в опросах
    Вы не можете прикреплять файлы к сообщениям
    Вы не можете скачивать файлы