BitTorrentTracker PerecTracker.org
BitTorrentTracker PerecTracker.org
    
Регистрация  ·  Вход
 
 · 
Забыли пароль?

  • Ник Валленда на высоте небоскребов: прямой эфир / Skyscraper Live With Nik Wallenda (-) [2014, документальный фильм, HDTV 1080i]

    Ответить на тему
     
    Автор Сообщение

    Columb

    Создавать темы 03-Ноя-2014 22:19

           

    [Цитировать]

    Ник Валленда на высоте небоскребов: прямой эфир
    Skyscraper Live With Nik Wallenda
    -Год выпуска: 2014
    Страна: США, Чикаго
    Жанр: документальный фильм
    Продолжительность: 01:40:59
    Перевод: Двухголосый закадровый
    Русские субтитры: нет
    Режиссер: -
    Описание: Ник Валленда отправляется в Чикаго чтобы бросить вызов смерти. Он попытается пройти по канату между двумя небоскребами с завязанными глазами.
    Сэмпл: https://yadi.sk/i/25eexwihcTQfs
    Формат: DVB-S2 Remux 1080i
    Видео кодек: AVC
    Аудио кодеk: AC3
    Видео: 1920x1080 (16:9), 25 fps, AVC, ~8900 Кбит/сек
    Аудио: Russian: AC3 5.1 (48 kHz / 384 kbps / 16 bit) (Двухголосый закадровый)
    English: AC3 5.1 (48 kHz / 384 kbps / 16 bit)-

    MediaInfo:

    Общее
    Уникальный идентификатор                 : 220321265665061919635763015245368318518 (0xA5C0551126D443528158DAE15CCEDA36)
    Полное имя                               : Skyscraper Live With Nik Wallenda [HDTV.1080i].mkv
    Формат                                   : Matroska
    Версия формата                           : Version 4 / Version 2
    Размер файла                             : 6,94 Гбайт
    Продолжительность                        : 1 ч. 40 м.
    Общий поток                              : 9839 Кбит/сек
    Дата кодирования                         : UTC 2014-11-03 02:39:23
    Программа кодирования                    : mkvmerge v7.3.0 ('Nouages') 64bit built on Oct 22 2014 18:53:34
    Библиотека кодирования                   : libebml v1.3.0 + libmatroska v1.4.1
    DURATION                                 : 01:40:59.520000000
    NUMBER_OF_FRAMES                         : 189360
    NUMBER_OF_BYTES                          : 290856960
    _STATISTICS_WRITING_APP                  : mkvmerge v7.3.0 ('Nouages') 64bit built on Oct 22 2014 18:53:34
    _STATISTICS_WRITING_DATE_UTC             : 2014-11-03 02:39:23
    _STATISTICS_TAGS                         : BPS DURATION NUMBER_OF_FRAMES NUMBER_OF_BYTES
    Видео
    Идентификатор                            : 1
    Формат                                   : AVC
    Формат/Информация                        : Advanced Video Codec
    Профиль формата                          : High@L4.0
    Параметр CABAC формата                   : Да
    Параметр ReFrames формата                : 4 кадра
    Идентификатор кодека                     : V_MPEG4/ISO/AVC
    Продолжительность                        : 1 ч. 40 м.
    Битрейт                                  : 8876 Кбит/сек
    Ширина                                   : 1920 пикселей
    Высота                                   : 1080 пикселей
    Соотношение сторон                       : 16:9
    Режим частоты кадров                     : Постоянный
    Частота кадров                           : 25,000 кадров/сек
    Стандарт вещания                         : Component
    Цветовое пространство                    : YUV
    Субдискретизация насыщенности            : 4:2:0
    Битовая глубина                          : 8 бит
    Тип развёртки                            : Чересстрочная
    Порядок развёртки                        : Верхнее поле первое
    Бит/(Пиксели*Кадры)                      : 0.171
    Размер потока                            : 6,26 Гбайт (90%)
    Заголовок                                : Skyscraper Live With Nik Wallenda
    Язык                                     : English
    Default                                  : Да
    Forced                                   : Да
    Основные цвета                           : BT.709
    Характеристики трансфера                 : BT.709
    Коэффициенты матрицы                     : BT.709
    Аудио #1
    Идентификатор                            : 2
    Формат                                   : AC-3
    Формат/Информация                        : Audio Coding 3
    Расширение режима                        : CM (complete main)
    Параметр Endianness формата              : Big
    Идентификатор кодека                     : A_AC3
    Продолжительность                        : 1 ч. 40 м.
    Вид битрейта                             : Постоянный
    Битрейт                                  : 384 Кбит/сек
    Каналы                                   : 6 каналов
    Расположение каналов                     : Front: L C R, Side: L R, LFE
    Частота                                  : 48,0 КГц
    Битовая глубина                          : 16 бит
    Метод сжатия                             : С потерями
    Размер потока                            : 277 Мбайт (4%)
    Заголовок                                : Двухголосый закадровый
    Язык                                     : Russian
    Default                                  : Да
    Forced                                   : Да
    Аудио #2
    Идентификатор                            : 3
    Формат                                   : AC-3
    Формат/Информация                        : Audio Coding 3
    Расширение режима                        : CM (complete main)
    Параметр Endianness формата              : Big
    Идентификатор кодека                     : A_AC3
    Продолжительность                        : 1 ч. 40 м.
    Вид битрейта                             : Постоянный
    Битрейт                                  : 384 Кбит/сек
    Каналы                                   : 6 каналов
    Расположение каналов                     : Front: L C R, Side: L R, LFE
    Частота                                  : 48,0 КГц
    Битовая глубина                          : 16 бит
    Метод сжатия                             : С потерями
    Размер потока                            : 277 Мбайт (4%)
    Заголовок                                : Original
    Язык                                     : English
    Default                                  : Нет
    Forced                                   : Нет

    Скриншоты:

    Скачать .torrent

    Скачать торрент-файл бесплатно и на максимальной скорости!

    Как скачивать? · Что такое торрент? · Рейтинг и ограничения

    !ВНИМАНИЕ!
    Сайт не распространяет и не хранит электронные версии произведений, а занимается лишь лишь предоставлением доступа к создаваемому пользователями каталогу ссылок на торрент-файлы, которые содержат только списки хеш-сумм, убедительная просьба с жалобами обращаться напрямую к пользователю. Файлы для обмена на трекере предоставлены пользователями сайта, и администрация не несёт ответственности за их содержание. Просьба не заливать файлы, защищенные авторскими правами, а также файлы нелегального содержания!

    [Профиль] [ЛС]
    Показать сообщения:    
    Ответить на тему

    Текущее время: Сегодня, в 16:41

    Часовой пояс: GMT + 2



    Вы не можете начинать темы
    Вы не можете отвечать на сообщения
    Вы не можете редактировать свои сообщения
    Вы не можете удалять свои сообщения
    Вы не можете голосовать в опросах
    Вы не можете прикреплять файлы к сообщениям
    Вы не можете скачивать файлы