BitTorrentTracker PerecTracker.org
BitTorrentTracker PerecTracker.org
    
Регистрация  ·  Вход
 
 · 
Забыли пароль?

  • Дело об убийстве Белоснежки / The Snow White Murder Case / Shirayuki hime satsujin jiken (Ёсихиро Накамура / Yoshihiro Nakamura) [2014, Япония, драма, детектив, HDRip] DVO [DeadSno & den904] + origanal Jap + Sub (eng, chin)

    Ответить на тему
     
    Автор Сообщение

    Columb

    Создавать темы 03-Ноя-2014 18:14

           

    [Цитировать]

    Дело об убийстве Белоснежки / The Snow White Murder Case / Shirayuki hime satsujin jiken--Страна: Япония
    Жанр: драма, детектив
    Год выпуска: 2014
    Продолжительность: 02:06:20-Перевод: Любительский (двухголосый закадровый) [DeadSno & den904]-Cубтитры: английские [SRT], китайские [ASS] - отдельно
    Оригинальная аудиодорожка: японский
    Режиссер: Ёсихиро Накамура / Yoshihiro Nakamura
    В ролях: Мао Иноэ, Гоу Аяно, Нанао, Мисако Рэмбуцу, Нубаки Канеко, Сихори Кандзия, Ерена Оно, Мицуки Танимура, Катсухиса Намасе, Сюнсукэ Дайто...
    Описание: Красавица Мики Норико работает в косметической компании. Однажды, Норико была убита. Люди начинают подозревать, что, возможной убийцей девушки является ее коллега Джоно Мики. Эта история легла в основу журналистского расследования. Журналист в поисках подтверждения этой теории берет интервью у коллег Джоно Мики, членов ее семьи, людей из ее родного города. Слухи превращаются в страх и в СМИ началась травля девушки. Но, является ли она такой страшной убийцей на самом деле?
    Релиз от -
    Сэмпл: http://multi-up.com/1010476
    Качество видео: HDRip
    Формат видео: AVI
    Видео: MPEG-4 Visual at 1820 Кбит/сек; 704 x 384 (1.833) at 23.976 fps
    Аудио: AC-3 at 192 Кбит/сек; 2 канала, 48,0 КГц [DVO]
    Аудио: AC-3 at 448 Кбит/сек; 6 каналов, 48,0 КГц [Jap]
    Автор -

    MediaInfo

    Общее
    Полное имя : D:\Фильмы\Азиатские\Дело об убийстве Белоснежки\The Snow White Murder Case.2014.HDRip.XviD.2200MB. rip by [Assassin's Creed]\The Snow White Murder Case.2014.HDRip.XviD.2200MB. rip by [Assassin's Creed].avi
    Формат : AVI
    Формат/Информация : Audio Video Interleave
    Профиль формата : OpenDML
    Размер файла : 2,19 Гбайт
    Продолжительность : 2 ч. 6 м.
    Общий поток : 2478 Кбит/сек
    Программа кодирования : VirtualDubMod 1.5.10.2 (build 2540/release)
    Библиотека кодирования : VirtualDubMod build 2540/release
    Видео
    Идентификатор : 0
    Формат : MPEG-4 Visual
    Профиль формата : Advanced Simple@L5
    Параметр BVOP формата : 1
    Параметр QPel формата : Нет
    Параметр GMC формата : Без точки перехода
    Параметр матрицы формата : Default (MPEG)
    Идентификатор кодека : XVID
    Идентификатор кодека/Подсказка : XviD
    Продолжительность : 2 ч. 6 м.
    Битрейт : 1820 Кбит/сек
    Ширина : 704 пикселя
    Высота : 384 пикселя
    Соотношение сторон : 1,85:1
    Частота кадров : 23,976 кадра/сек
    Цветовое пространство : YUV
    Субдискретизация насыщенности : 4:2:0
    Битовая глубина : 8 бит
    Тип развёртки : Прогрессивная
    Метод сжатия : С потерями
    Бит/(Пиксели*Кадры) : 0.281
    Размер потока : 1,61 Гбайт (73%)
    Библиотека кодирования : XviD 1.2.1 (UTC 2008-12-04)
    Аудио #1
    Идентификатор : 1
    Формат : AC-3
    Формат/Информация : Audio Coding 3
    Расширение режима : CM (complete main)
    Параметр Endianness формата : Big
    Идентификатор кодека : 2000
    Продолжительность : 2 ч. 6 м.
    Вид битрейта : Постоянный
    Битрейт : 192 Кбит/сек
    Каналы : 2 канала
    Расположение каналов : Front: L R
    Частота : 48,0 КГц
    Битовая глубина : 16 бит
    Метод сжатия : С потерями
    Размер потока : 173 Мбайт (8%)
    Выравнивание : Разделение по промежуткам
    Продолжительность промежутка : 42 мс. (1,00 видеокадр)
    Время предзагрузки промежутка : 500 мс.
    Аудио #2
    Идентификатор : 2
    Формат : AC-3
    Формат/Информация : Audio Coding 3
    Расширение режима : CM (complete main)
    Параметр Endianness формата : Big
    Идентификатор кодека : 2000
    Продолжительность : 2 ч. 6 м.
    Вид битрейта : Постоянный
    Битрейт : 448 Кбит/сек
    Каналы : 6 каналов
    Расположение каналов : Front: L C R, Side: L R, LFE
    Частота : 48,0 КГц
    Битовая глубина : 16 бит
    Метод сжатия : С потерями
    Размер потока : 405 Мбайт (18%)
    Выравнивание : Разделение по промежуткам
    Продолжительность промежутка : 42 мс. (1,00 видеокадр)
    Время предзагрузки промежутка : 500 мс.
    Общее
    Полное имя : D:\Фильмы\Азиатские\Дело об убийстве Белоснежки\The Snow White Murder Case.2014.HDRip.XviD.2200MB. rip by [Assassin's Creed]\The Snow White Murder Case.2014.HDRip.XviD.2200MB. rip by [Assassin's Creed].chin.ass
    Размер файла : 152 Кбайт
    Общее
    Полное имя : D:\Фильмы\Азиатские\Дело об убийстве Белоснежки\The Snow White Murder Case.2014.HDRip.XviD.2200MB. rip by [Assassin's Creed]\The Snow White Murder Case.2014.HDRip.XviD.2200MB. rip by [Assassin's Creed].eng.srt
    Формат : SubRip
    Размер файла : 118 Кбайт
    Текст
    Формат : SubRip
    Метод сжатия : Без потерь

    Скриншот c названием фильма

    Скриншоты

    Скачать .torrent

    Скачать торрент-файл бесплатно и на максимальной скорости!

    Как скачивать? · Что такое торрент? · Рейтинг и ограничения

    !ВНИМАНИЕ!
    Сайт не распространяет и не хранит электронные версии произведений, а занимается лишь лишь предоставлением доступа к создаваемому пользователями каталогу ссылок на торрент-файлы, которые содержат только списки хеш-сумм, убедительная просьба с жалобами обращаться напрямую к пользователю. Файлы для обмена на трекере предоставлены пользователями сайта, и администрация не несёт ответственности за их содержание. Просьба не заливать файлы, защищенные авторскими правами, а также файлы нелегального содержания!

    [Профиль] [ЛС]
    Показать сообщения:    
    Ответить на тему

    Текущее время: Сегодня, в 08:32

    Часовой пояс: GMT + 2



    Вы не можете начинать темы
    Вы не можете отвечать на сообщения
    Вы не можете редактировать свои сообщения
    Вы не можете удалять свои сообщения
    Вы не можете голосовать в опросах
    Вы не можете прикреплять файлы к сообщениям
    Вы не можете скачивать файлы