BitTorrentTracker PerecTracker.org
BitTorrentTracker PerecTracker.org
    
Регистрация  ·  Вход
 
 · 
Забыли пароль?

  • 7500 / 7500 (Такаси Симидзу / Takashi Shimizu) [2014, Япония, США, ужасы, триллер, детектив, HDRip] VO (Xixidok) + Original Eng

    Ответить на тему
     
    Автор Сообщение

    Columb

    Создавать темы 03-Ноя-2014 18:07

           

    [Цитировать]

    7500 / 7500
    Страна: Япония, США
    Жанр: ужасы, триллер, детектив
    Год выпуска: 2014
    Продолжительность: 01:19:49
    Перевод: Одноголосый закадровый Xixidok
    Cубтитры: нет
    Оригинальная аудиодорожка: английский
    Режиссер: Такаси Симидзу / Takashi Shimizu
    В ролях: Райан Квантен, Эми Смарт, Лесли Бибб, Джейми Чунг, Скаут Тейлор-Комптон, Никки Уилан, Джерри Феррара, Кристиан Серратос, Алекс Фрост, Рик Келли
    Описание: Действующие лица фильма — группа пассажиров рейса Vista Pacific 7500, совершающего перелет через Тихий океан. Мерное и тоскливое течение времени во время полета внезапно нарушается, и герои сталкиваются с некой сверхъестественной силой, вносящей не самое приятное разнообразие в замкнутом пространстве.
    Доп. информация:

    Сэмпл: http://multi-up.com/1010607
    Качество видео: HDRip
    Формат видео: AVI
    Видео: 720x384 (1.88:1), 23.976 fps, XviD MPEG-4 ~2173 kbps avg, 0.33 bit/pixel
    Аудио: 44.100 kHz, MPEG Layer 3, 2 ch, ~192.00 kbps avg Rus
    Аудио 2: 48 kHz, MPEG Layer 3, 2 ch, ~256.00 kbps avg Eng

    MediaInfo

    General
    Complete name : C:\Users\Вика\Desktop\7500.HDRip.2014.avi
    Format : AVI
    Format/Info : Audio Video Interleave
    File size : 1.47 GiB
    Duration : 1h 19mn
    Overall bit rate : 2 636 Kbps
    Writing application : VirtualDubModRus 1.5.10.2 (build 2542/release)
    Writing library : VirtualDubMod build 2542/release
    Video
    ID : 0
    Format : MPEG-4 Visual
    Format profile : Advanced Simple@L5
    Format settings, BVOP : Yes
    Format settings, QPel : No
    Format settings, GMC : No warppoints
    Format settings, Matrix : Default (H.263)
    Codec ID : XVID
    Codec ID/Hint : XviD
    Duration : 1h 19mn
    Bit rate : 2 174 Kbps
    Width : 720 pixels
    Height : 384 pixels
    Display aspect ratio : 1.85:1
    Frame rate : 23.976 fps
    Color space : YUV
    Chroma subsampling : 4:2:0
    Bit depth : 8 bits
    Scan type : Progressive
    Compression mode : Lossy
    Bits/(Pixel*Frame) : 0.328
    Stream size : 1.21 GiB (82%)
    Writing library : XviD 64
    Audio #1
    ID : 1
    Format : MPEG Audio
    Format version : Version 1
    Format profile : Layer 3
    Codec ID : 55
    Codec ID/Hint : MP3
    Duration : 1h 19mn
    Bit rate mode : Constant
    Bit rate : 192 Kbps
    Channel count : 2 channels
    Sampling rate : 44.1 KHz
    Compression mode : Lossy
    Stream size : 110 MiB (7%)
    Alignment : Split accross interleaves
    Interleave, duration : 42 ms (1.00 video frame)
    Interleave, preload duration : 500 ms
    Audio #2
    ID : 2
    Format : MPEG Audio
    Format version : Version 1
    Format profile : Layer 3
    Codec ID : 55
    Codec ID/Hint : MP3
    Duration : 1h 19mn
    Bit rate mode : Constant
    Bit rate : 256 Kbps
    Channel count : 2 channels
    Sampling rate : 48.0 KHz
    Compression mode : Lossy
    Stream size : 146 MiB (10%)
    Alignment : Aligned on interleaves
    Interleave, duration : 42 ms (1.00 video frame)
    Interleave, preload duration : 504 ms
    Writing library : LAME3.99r
    Encoding settings : -m s -V 4 -q 0 -lowpass 19.7

    Скриншоты

    Скачать .torrent

    Скачать торрент-файл бесплатно и на максимальной скорости!

    Как скачивать? · Что такое торрент? · Рейтинг и ограничения

    !ВНИМАНИЕ!
    Сайт не распространяет и не хранит электронные версии произведений, а занимается лишь лишь предоставлением доступа к создаваемому пользователями каталогу ссылок на торрент-файлы, которые содержат только списки хеш-сумм, убедительная просьба с жалобами обращаться напрямую к пользователю. Файлы для обмена на трекере предоставлены пользователями сайта, и администрация не несёт ответственности за их содержание. Просьба не заливать файлы, защищенные авторскими правами, а также файлы нелегального содержания!

    [Профиль] [ЛС]

    HAwkey

    Создавать темы 22-Апр-2015 17:41 (спустя 5 месяцев 18 дней)

           

    [Цитировать]

    Неплохой фильм - жутковатый ai
    [Профиль] [ЛС]
    Показать сообщения:    
    Ответить на тему

    Текущее время: Сегодня, в 04:11

    Часовой пояс: GMT + 2



    Вы не можете начинать темы
    Вы не можете отвечать на сообщения
    Вы не можете редактировать свои сообщения
    Вы не можете удалять свои сообщения
    Вы не можете голосовать в опросах
    Вы не можете прикреплять файлы к сообщениям
    Вы не можете скачивать файлы