BitTorrentTracker PerecTracker.org
BitTorrentTracker PerecTracker.org
    
Регистрация  ·  Вход
 
 · 
Забыли пароль?

  • Еще один год (Оксана Бычкова) [2014, мелодрама, DVDScreener]

    Ответить на тему
     
    Автор Сообщение

    Columb

    Создавать темы 02-Ноя-2014 15:55

           

    [Цитировать]

    Еще один год
    Жанр: мелодрама
    Год выпуска: 2014
    Продолжительность: 1:47:33
    Субтитры: Вшитые не отключаемые
    Язык субтитров: Английские
    Режиссёр: Оксана Бычкова
    В ролях: Алексей Филимонов и Надежда Лумпова
    Описание: Он — бомбила, подрабатывающий по ночам, она — начинающий веб-дизайнер в модном СМИ. Любви в этих отношения сполна, но они из разных социальных слоев, у них разные интересы. Эти различия, в комбинации с бешеной страстью, постепенно достигают своего апогея. И все это происходит в течение года. Они маются, расстаются, сходятся, любят, ненавидят, занимаются любовью и снова убегают друг от друга и от себя. Что творится в головах и сердцах этих людей не понимает никто, но самое интересное, а знают ли они сами?
    Сэмпл: http://multi-up.com/1010344
    Качество видео: DVDScreener
    Формат видео: AVI
    Видео: 720x400 (16:9), 24.000 fps, XviD 1.2.1 ~1618 kbps avg, 0.234 bit/pixel
    Аудио: 48 kHz, AC-3, 2 ch, ~192 kbps

    MediaInfo

    General
    Complete name : F:\Download\Еще.один.год..avi
    Format : AVI
    Format/Info : Audio Video Interleave
    File size : 1.37 GiB
    Duration : 1h 47mn
    Overall bit rate : 1 819 Kbps
    Writing application : VirtualDubMod 1.5.10.3 | www.virtualdub-fr.org || (build 2550/release)
    Writing library : VirtualDubMod build 2550/release
    Video
    ID : 0
    Format : MPEG-4 Visual
    Format profile : Advanced Simple@L5
    Format settings, BVOP : 2
    Format settings, QPel : No
    Format settings, GMC : No warppoints
    Format settings, Matrix : Default (MPEG)
    Codec ID : XVID
    Codec ID/Hint : XviD
    Duration : 1h 47mn
    Bit rate : 1 618 Kbps
    Width : 720 pixels
    Height : 400 pixels
    Display aspect ratio : 16:9
    Frame rate : 24.000 fps
    Color space : YUV
    Chroma subsampling : 4:2:0
    Bit depth : 8 bits
    Scan type : Progressive
    Compression mode : Lossy
    Bits/(Pixel*Frame) : 0.234
    Stream size : 1.22 GiB (89%)
    Writing library : XviD 1.2.1 (UTC 2008-12-04)
    Audio
    ID : 1
    Format : AC-3
    Format/Info : Audio Coding 3
    Mode extension : CM (complete main)
    Format settings, Endianness : Big
    Codec ID : 2000
    Duration : 1h 47mn
    Bit rate mode : Constant
    Bit rate : 192 Kbps
    Channel(s) : 2 channels
    Channel positions : Front: L R
    Sampling rate : 48.0 KHz
    Bit depth : 16 bits
    Compression mode : Lossy
    Stream size : 148 MiB (11%)
    Alignment : Split accross interleaves
    Interleave, duration : 42 ms (1.00 video frame)
    Interleave, preload duration : 500 ms

    Скриншот c названием фильма

    Скриншоты

    Скачать .torrent

    Скачать торрент-файл бесплатно и на максимальной скорости!

    Как скачивать? · Что такое торрент? · Рейтинг и ограничения

    !ВНИМАНИЕ!
    Сайт не распространяет и не хранит электронные версии произведений, а занимается лишь лишь предоставлением доступа к создаваемому пользователями каталогу ссылок на торрент-файлы, которые содержат только списки хеш-сумм, убедительная просьба с жалобами обращаться напрямую к пользователю. Файлы для обмена на трекере предоставлены пользователями сайта, и администрация не несёт ответственности за их содержание. Просьба не заливать файлы, защищенные авторскими правами, а также файлы нелегального содержания!

    [Профиль] [ЛС]
    Показать сообщения:    
    Ответить на тему

    Текущее время: Сегодня, в 18:50

    Часовой пояс: GMT + 2



    Вы не можете начинать темы
    Вы не можете отвечать на сообщения
    Вы не можете редактировать свои сообщения
    Вы не можете удалять свои сообщения
    Вы не можете голосовать в опросах
    Вы не можете прикреплять файлы к сообщениям
    Вы не можете скачивать файлы