BitTorrentTracker PerecTracker.org
BitTorrentTracker PerecTracker.org
    
Регистрация  ·  Вход
 
 · 
Забыли пароль?

  • Катастрофа в Л.А. Последний зомби-апокалипсис начался здесь / Disaster L.A. The Last Zombie Apocalypse Begins Here (Тернер Клэй / Turner Clay) [2014, США, ужасы, фантастика, боевик, DVDRip] VO (Ворон)

    Ответить на тему
     
    Автор Сообщение

    Columb

    Создавать темы 02-Ноя-2014 15:43

           

    [Цитировать]

    Катастрофа в Л.А. Последний зомби-апокалипсис начался здесь / Disaster L.A. The Last Zombie Apocalypse Begins Here
    Страна: США
    Жанр: ужасы, фантастика, боевик
    Год выпуска: 2014
    Продолжительность: 01:22:46
    Перевод: Одноголосый закадровый Ворон по субтитрам МЕГАПЫХАРЬ & Ворон
    Cубтитры: нет
    Оригинальная аудиодорожка: нет
    Режиссер: Тернер Клэй / Turner Clay
    В ролях: Джастин Рэй, Стефани Эстес, Рон Хэнкс, Али Уильямс, Майкл Дж. Силафф, Таша Диксон, Джерод Мигер, Джефф Локкер, Тэнси Александр
    Описание: После того, как на Лос-Анджелес обрушился метеоритный дождь, токсичный дым распространяется по всему городу, вызывая в организме человека необратимые изменения. Небольшая группа выживших пытается покинуть город и добраться до побережья...
    Релиз: & Картель «ЗЛОЙ СОБАК»
    Сэмпл: http://multi-up.com/1010333
    Качество видео: DVDRip
    Формат видео: AVI
    Видео: 640x272 (2.35:1), XviD build 65~1127 kbps avg, 23.976 fps, 0.27 bit/pixel
    Аудио: MPEG Layer 3, 48 kHz ,2ch, 192.00 kbps avg

    MediaInfo

    E:\злой собак\Катастрофа в ЛА.avi
    General
    Complete name : E:\злой собак\Катастрофа в ЛА.avi
    Format : AVI
    Format/Info : Audio Video Interleave
    File size : 787 MiB
    Duration : 1h 22mn
    Overall bit rate : 1 329 Kbps
    Video #0
    ID : 0
    Format : MPEG-4 Visual
    Format profile : Advanced Simple@L5
    Format settings, BVOP : 2
    Format settings, QPel : No
    Format settings, GMC : No warppoints
    Format settings, Matrix : Default (H.263)
    Codec ID : XVID
    Codec ID/Hint : XviD
    Duration : 1h 22mn
    Bit rate : 1 127 Kbps
    Width : 640 pixels
    Height : 272 pixels
    Display aspect ratio : 2.35:1
    Frame rate : 23.976 fps
    Color space : YUV
    Chroma subsampling : 4:2:0
    Bit depth : 8 bits
    Scan type : Progressive
    Compression mode : Lossy
    Bits/(Pixel*Frame) : 0.270
    Stream size : 668 MiB (85%)
    Writing library : XviD 65
    Audio #1
    ID : 1
    Format : MPEG Audio
    Format version : Version 1
    Format profile : Layer 3
    Codec ID : 55
    Codec ID/Hint : MP3
    Duration : 1h 22mn
    Bit rate mode : Constant
    Bit rate : 192 Kbps
    Channel(s) : 2 channels
    Sampling rate : 48.0 KHz
    Compression mode : Lossy
    Stream size : 114 MiB (14%)
    Alignment : Split accross interleaves
    Interleave, duration : 44 ms (1.05 video frame)
    Writing library : LAMELAME_MAJOR_VERSI

    Скриншот c названием фильма

    Скриншоты

    Скачать .torrent

    Скачать торрент-файл бесплатно и на максимальной скорости!

    Как скачивать? · Что такое торрент? · Рейтинг и ограничения

    !ВНИМАНИЕ!
    Сайт не распространяет и не хранит электронные версии произведений, а занимается лишь лишь предоставлением доступа к создаваемому пользователями каталогу ссылок на торрент-файлы, которые содержат только списки хеш-сумм, убедительная просьба с жалобами обращаться напрямую к пользователю. Файлы для обмена на трекере предоставлены пользователями сайта, и администрация не несёт ответственности за их содержание. Просьба не заливать файлы, защищенные авторскими правами, а также файлы нелегального содержания!

    [Профиль] [ЛС]
    Показать сообщения:    
    Ответить на тему

    Текущее время: Сегодня, в 05:24

    Часовой пояс: GMT + 2



    Вы не можете начинать темы
    Вы не можете отвечать на сообщения
    Вы не можете редактировать свои сообщения
    Вы не можете удалять свои сообщения
    Вы не можете голосовать в опросах
    Вы не можете прикреплять файлы к сообщениям
    Вы не можете скачивать файлы