BitTorrentTracker PerecTracker.org
BitTorrentTracker PerecTracker.org
    
Регистрация  ·  Вход
 
 · 
Забыли пароль?

  • Деревенщина / Серии: 1-2 из 2 (1-4 из 4) (Владимир Устюгов) [2014, Россия, Мелодрама, HDTVRip]

    Ответить на тему
     
    Автор Сообщение

    Columb

    Создавать темы 02-Ноя-2014 15:37

           

    [Цитировать]

    ДеревенщинаПроизводитель : Россия, © ЗАО "Студия "Гелиос""
    Жанр: Мелодрама
    Год выпуска: 2014
    Продолжительность: 50 мин.
    Cубтитры: нет
    Режиссер: Владимир Устюгов
    В ролях: Анна Михайловская, Александр Константинов, Дмитрий Пчела, Елена Бирюкова, Даша Русакова, Виталий Герасимов, Вера Васильева, Евгений Редько, Марина Есипенко, Вероника Вернадская, Ирина Чипиженко, Эрнст Романов
    Описание: Лида - простая, скромная девушка - живет с матерью в деревне Колпаково и мечтает стать стюардессой. Своего отца она видела лишь однажды - пять лет назад. От той далекой встречи у Лиды остались серебряные сережки - папин подарок - и приглашение приезжать к нему после окончания школы... Когда мать Лиды выходит замуж, девушка понимает, что она лишняя в новой семье, и отправляется в столицу, полная смутных надежд на счастье. Лида попадает в дом к ее отцу - перспективному ученому-химику. Он с радостью пускает героиню в семью, но его рафинированная жена и капризные, избалованные дочки совсем не рады появлению "деревенщины" и намерены избавиться от нее любым способом…
    Доп. информация: Релиз группа
    Сэмпл
    Качество: HDTVRip
    Формат: AVI
    Видео кодек: XviD
    Аудио кодек: AC3
    Видео: 720x400 (1.80:1), 25 fps, XviD build 50 ~1548 kbps avg, 0.22 bit/pixel
    Аудио: 48 kHz, AC3 Dolby Digital, 2/0 (L,R) ch, ~192.00 kbps avg

    MI

    General
    Complete name : Y:\раздачи\Derevenschina.(01-02.seriya.iz.02).2014.HDTVRip.RG.Russkie.serialy.&.Files-x\Derevenschina.(01.seriya.iz.02).2014.HDTVRip.RG.Russkie.serialy.&.Files-x.avi
    Format : AVI
    Format/Info : Audio Video Interleave
    File size : 1.37 GiB
    Duration : 1h 29mn
    Overall bit rate : 2 190 Kbps
    Writing application : VirtualDubMod 1.5.10.3 | www.virtualdub-fr.org || (build 2550/release)
    Writing library : VirtualDubMod build 2550/release
    Video
    ID : 0
    Format : MPEG-4 Visual
    Format profile : Advanced Simple@L5
    Format settings, BVOP : 1
    Format settings, QPel : No
    Format settings, GMC : No warppoints
    Format settings, Matrix : Custom
    Codec ID : XVID
    Codec ID/Hint : XviD
    Duration : 1h 29mn
    Bit rate : 1 988 Kbps
    Width : 720 pixels
    Height : 400 pixels
    Display aspect ratio : 16:9
    Frame rate : 25.000 fps
    Color space : YUV
    Chroma subsampling : 4:2:0
    Bit depth : 8 bits
    Scan type : Progressive
    Compression mode : Lossy
    Bits/(Pixel*Frame) : 0.276
    Stream size : 1.24 GiB (91%)
    Writing library : XviD 73
    Audio
    ID : 1
    Format : AC-3
    Format/Info : Audio Coding 3
    Mode extension : CM (complete main)
    Format settings, Endianness : Big
    Codec ID : 2000
    Duration : 1h 29mn
    Bit rate mode : Constant
    Bit rate : 192 Kbps
    Channel(s) : 2 channels
    Channel positions : Front: L R
    Sampling rate : 48.0 KHz
    Bit depth : 16 bits
    Compression mode : Lossy
    Stream size : 123 MiB (9%)
    Alignment : Split accross interleaves
    Interleave, duration : 40 ms (1.00 video frame)
    Interleave, preload duration : 500 ms

    Сравнение с украинскм сатрипом

    http://screenshotcomparison.com/comparison/98413/picture:2

    Скриншоты

    Скачать .torrent

    Скачать торрент-файл бесплатно и на максимальной скорости!

    Как скачивать? · Что такое торрент? · Рейтинг и ограничения

    !ВНИМАНИЕ!
    Сайт не распространяет и не хранит электронные версии произведений, а занимается лишь лишь предоставлением доступа к создаваемому пользователями каталогу ссылок на торрент-файлы, которые содержат только списки хеш-сумм, убедительная просьба с жалобами обращаться напрямую к пользователю. Файлы для обмена на трекере предоставлены пользователями сайта, и администрация не несёт ответственности за их содержание. Просьба не заливать файлы, защищенные авторскими правами, а также файлы нелегального содержания!

    [Профиль] [ЛС]
    Показать сообщения:    
    Ответить на тему

    Текущее время: Сегодня, в 02:38

    Часовой пояс: GMT + 2



    Вы не можете начинать темы
    Вы не можете отвечать на сообщения
    Вы не можете редактировать свои сообщения
    Вы не можете удалять свои сообщения
    Вы не можете голосовать в опросах
    Вы не можете прикреплять файлы к сообщениям
    Вы не можете скачивать файлы