BitTorrentTracker PerecTracker.org
BitTorrentTracker PerecTracker.org
    
Регистрация  ·  Вход
 
 · 
Забыли пароль?

  • Белокурая невеста из Лунного Королевства / The White Haired Witch of Lunar Kingdom (Чжан Чжилиан / Zhang Zhiliang) [2014, Китай, фэнтези, мелодрама, HDRip] DVO [GREEN TEA]

    Ответить на тему
     
    Автор Сообщение

    Columb

    Создавать темы 02-Ноя-2014 13:48

           

    [Цитировать]

    Белокурая невеста из Лунного Королевства / The White Haired Witch of Lunar Kingdom--Страна: Китай
    Жанр: фэнтези, мелодрама
    Год выпуска: 2014
    Продолжительность: 01:43:47-Перевод: Любительский (двухголосый закадровый) [GREEN TEA]-Cубтитры: нет
    Оригинальная аудиодорожка: нет
    Режиссер: Чжан Чжилиан / Zhang Zhiliang
    В ролях: Бинбин Фань, Сяо Мин Хуан, Вэньчжо Чжао, Хуан Цзяньсинь, Юйшэн Лян...
    Описание: В центре событий — мстительница, которая наказывает людей во имя Луны за чинимые ими преступления и несправедливости, история о боевых искусствах, мести, любви, чести и романтике.
    Релиз от -
    Качество видео: HDRip
    Формат видео: AVI
    Видео: MPEG-4 Visual at 871 Кбит/сек; 688 x 288 (2.389) at 23.976 fps
    Аудио: MPEG Audio at 128 Кбит/сек; 2 канала, 48,0 КГц
    Автор -

    MediaInfo

    Общее
    Полное имя : D:\Фильмы\Азиатские\Белокурая невеста из Лунного Королевства\The White Haired Witch of Lunar Kingdom.2014.HDRip.XviD.745MB. rip by [Assassin's Creed].avi
    Формат : AVI
    Формат/Информация : Audio Video Interleave
    Размер файла : 749 Мбайт
    Продолжительность : 1 ч. 43 м.
    Общий поток : 1008 Кбит/сек
    Программа кодирования : VirtualDubMod 1.5.10.2 (build 2540/release)
    Библиотека кодирования : VirtualDubMod build 2540/release
    Видео
    Идентификатор : 0
    Формат : MPEG-4 Visual
    Профиль формата : Advanced Simple@L5
    Параметр BVOP формата : 1
    Параметр QPel формата : Нет
    Параметр GMC формата : Без точки перехода
    Параметр матрицы формата : Default (MPEG)
    Идентификатор кодека : XVID
    Идентификатор кодека/Подсказка : XviD
    Продолжительность : 1 ч. 43 м.
    Битрейт : 871 Кбит/сек
    Ширина : 688 пикселей
    Высота : 288 пикселей
    Соотношение сторон : 2,40:1
    Частота кадров : 23,976 кадра/сек
    Цветовое пространство : YUV
    Субдискретизация насыщенности : 4:2:0
    Битовая глубина : 8 бит
    Тип развёртки : Прогрессивная
    Метод сжатия : С потерями
    Бит/(Пиксели*Кадры) : 0.183
    Размер потока : 647 Мбайт (86%)
    Библиотека кодирования : XviD 1.2.1 (UTC 2008-12-04)
    Аудио
    Идентификатор : 1
    Формат : MPEG Audio
    Версия формата : Version 1
    Профиль формата : Layer 3
    Идентификатор кодека : 55
    Идентификатор кодека/Подсказка : MP3
    Продолжительность : 1 ч. 43 м.
    Вид битрейта : Постоянный
    Битрейт : 128 Кбит/сек
    Каналы : 2 канала
    Частота : 48,0 КГц
    Метод сжатия : С потерями
    Размер потока : 95,0 Мбайт (13%)
    Выравнивание : Соединение по промежуткам
    Продолжительность промежутка : 42 мс. (1,00 видеокадр)
    Время предзагрузки промежутка : 504 мс.
    Библиотека кодирования : LAME3.99r
    Настройки программы : -m s -V 4 -q 2 -lowpass 17 -b 128

    Скриншот c названием фильма

    Скриншоты

    Скачать .torrent

    Скачать торрент-файл бесплатно и на максимальной скорости!

    Как скачивать? · Что такое торрент? · Рейтинг и ограничения

    !ВНИМАНИЕ!
    Сайт не распространяет и не хранит электронные версии произведений, а занимается лишь лишь предоставлением доступа к создаваемому пользователями каталогу ссылок на торрент-файлы, которые содержат только списки хеш-сумм, убедительная просьба с жалобами обращаться напрямую к пользователю. Файлы для обмена на трекере предоставлены пользователями сайта, и администрация не несёт ответственности за их содержание. Просьба не заливать файлы, защищенные авторскими правами, а также файлы нелегального содержания!

    [Профиль] [ЛС]
    Показать сообщения:    
    Ответить на тему

    Текущее время: Сегодня, в 16:34

    Часовой пояс: GMT + 2



    Вы не можете начинать темы
    Вы не можете отвечать на сообщения
    Вы не можете редактировать свои сообщения
    Вы не можете удалять свои сообщения
    Вы не можете голосовать в опросах
    Вы не можете прикреплять файлы к сообщениям
    Вы не можете скачивать файлы