BitTorrentTracker PerecTracker.org
BitTorrentTracker PerecTracker.org
    
Регистрация  ·  Вход
 
 · 
Забыли пароль?

  • Знаменитые соблазнители (6 серии из 6) / Документальное кино Леонида Млечина (Александр Седельников) [2014, Биография, киноведение, кинохроника, SATRip] (обновлено 01.11.2014)

    Ответить на тему
     
    Автор Сообщение

    Columb

    Создавать темы 01-Ноя-2014 10:24

           

    [Цитировать]

    Знаменитые соблазнители (6 серии из 6) / Документальное кино Леонида Млечина
    Год выпуска: 2014
    Страна: Россия
    Жанр: Биография, киноведение, кинохроника
    Продолжительность: 6 х ~ 00:39:00
    Перевод: Не требуется
    Режиссер: Александр Седельников, Екатерина Гальперина, Игорь Максимчук
    Ведущий: Леонид Млечин
    Телеканал: ТВ Центр
    Описание: 26 февраля 2014 года в эфире телеканала "ТВ Центр" состоялась премьера нового документального фильма "Знаменитые соблазнители ", в роли ведущего и автора которого выступил известный российский документалист Леонид Млечин. Сюжет картины посвящен рассказу о непростой личной жизни легендарных американских актёров.

    1. Основной инстинкт Майкла Дугласа

    Описание: Необузданный сексуальный темперамент Майкла Дугласа уже давно стал одной из легенд Голливуда. По настоянию жены он даже лег в клинику, чтобы умерить свой основной инстинкт. Лечение, кажется, не помогло, и одно роковое влечение сменяет другое. Однако в семейной жизни Дуглас консерватор и полагает, что место жены – дома.
    Видео: Xvid, MPEG-4 Visual, 704 x 528 (1.333), 1499 Kbps, 25.000 fps
    Аудио: MP3, MPEG Audio, 2 ch, 128 Kbps, 48.0 KHz

    2. Джек Николсон и его женщины

    Описание: Судьба голливудской знаменитости Джека Николсона соткана из противоречий. Грандиозная карьера в кино – и заниженная самооценка. Невероятный успех у женщин – и внутренняя неуверенность. Не потому ли все его романы заканчивались неудачно? Почему великий любовник не способен удержать ни одну женщину? Возможно, причины кроются в загадочных обстоятельствах его появления на свет?
    Видео: Xvid, MPEG-4 Visual, 704 x 528 (1.333), 1498 Kbps, 25.000 fps
    Аудио: MP3, MPEG Audio, 2 ch, 128 Kbps, 48.0 KHz

    3. Патрик Суэйзи. Удержаться на гребне волны

    Описание: Знаменитого киноактера Патрика Суэйзи называли "самым сексуальным мужчиной" даже не Голливуда, а всей Америки. Гибкий, с танцующей походкой, он снискал репутацию покорителя дамских сердец. Женщины не могли противостоять редкому сочетанию мужественности и нежности. Но мало кто знает, какие испытания выпали на долю того, кого называли "Мистер Секс".
    Видео: Xvid, MPEG-4 Visual, 704 x 528 (1.333), 1500 Kbps, 25.000 fps
    Аудио: MP3, MPEG Audio, 2 ch, 128 Kbps, 48.0 KHz

    4. Шон Коннери. Рожденный соблазнять

    Описание: Когда в начале 60-х Шону Коннери предложили роль Джеймса Бонда, он был неизвестным начинающим актёром. Одобрить кандидатуру секретного агента должен был сам Ян Флеминг – автор романов о Бонде. Они вместе пообедали. Флемингу простоватый Коннери не понравился. Он сомневался, что этот шотландский пролетарий способен перевоплотиться в британского джентльмена. Однако он ошибался…
    Видео: Xvid, MPEG-4 Visual, 704 x 528 (1.333), 1499 Kbps, 25.000 fps
    Аудио: MP3, MPEG Audio, 2 ch, 128 Kbps, 48.0 KHz

    5. Клинт Иствуд. Моралист с кольтом

    Описание: "Никто не верил, что я чего-нибудь добьюсь в жизни, – говорит Клинт Иствуд. – Так что я сильно расстроил тех, кто повторял, что из меня ничего не выйдет". Путь Клинта к самым вершинам и впрямь был непростым – и в своём фильме Леонид Млечин показывает его от начала до сегодняшнего дня.
    Видео: Xvid, MPEG-4 Visual, 704 x 528 (1.333), 1499 Kbps, 25.000 fps
    Аудио: MP3, MPEG Audio, 2 ch, 128 Kbps, 48.0 KHz

    6. Джейсон Стэтхэм. Очарование криминального авторитета

    Описание: Каждой эпохе - свои киногерои. В 21 веке на первый план вышел британец по происхождению Джейсон Стэтхэм. В его послужном списке удачные фильмы, которые принесли уже миллиард долларов. Впереди - продолжение завидной кинокарьеры. Рядом с ним - супермодель. И всё это счастье досталось человеку, который торговал на улице подделками и которого ждала встреча с полицией не на экране, а в жизни.
    Видео: Xvid, MPEG-4 Visual, 704 x 528 (1.333), 1499 Kbps, 25.000 fps
    Аудио: MP3, MPEG Audio, 2 ch, 128 Kbps, 48.0 KHz
    Доп. информация: Релиз-группа DaVinci
    Ripped by Xaоc, телеканал «ТВ Центр»
    качество: SATRip
    формат: AVI
    Видео: Xvid, MPEG-4 Visual, 704 x 528 (1.333), ~ 1500 Kbps, 25.000 fps
    Аудио: MP3, MPEG Audio, 2 ch, 128 Kbps, 48.0 KHz

    MediaInfo

    Format : AVIFormat/Info : Audio Video InterleaveFile size : 455 MiBDuration : 38mn 50sOverall bit rate : 1 638 KbpsWriting library : VirtualDub build 35390/release
    VideoID : 0Format : MPEG-4 VisualFormat profile : Advanced Simple@L5Format settings, BVOP : 2Format settings, QPel : NoFormat settings, GMC : No warppointsFormat settings, Matrix : Default (H.263)Muxing mode : Packed bitstreamCodec ID : XVIDCodec ID/Hint : XviDDuration : 38mn 50sBit rate : 1 500 KbpsWidth : 704 pixelsHeight : 528 pixelsDisplay aspect ratio : 4:3Frame rate : 25.000 fpsColor space : YUVChroma subsampling : 4:2:0Bit depth : 8 bitsScan type : ProgressiveCompression mode : LossyBits/(Pixel*Frame) : 0.161Stream size : 417 MiB (92%)Writing library : XviD 1.2.1 (UTC 2008-12-04)
    AudioID : 1Format : MPEG AudioFormat version : Version 1Format profile : Layer 3Mode : Joint stereoMode extension : MS StereoCodec ID : 55Codec ID/Hint : MP3Duration : 38mn 50sBit rate mode : ConstantBit rate : 128 KbpsChannel(s) : 2 channelsSampling rate : 48.0 KHzCompression mode : LossyStream size : 35.6 MiB (8%)Alignment : Split accross interleavesInterleave, duration : 40 ms (1.00 video frame)Interleave, preload duration : 500 ms
    Не забывай говорить "Спасибо"
    Пожалуйста не уходите с раздачи!
    ТОРРЕНТ ОБНОВЛЁН!Добавлены новые выпуски!
    Скачать .torrent

    Скачать торрент-файл бесплатно и на максимальной скорости!

    Как скачивать? · Что такое торрент? · Рейтинг и ограничения

    !ВНИМАНИЕ!
    Сайт не распространяет и не хранит электронные версии произведений, а занимается лишь лишь предоставлением доступа к создаваемому пользователями каталогу ссылок на торрент-файлы, которые содержат только списки хеш-сумм, убедительная просьба с жалобами обращаться напрямую к пользователю. Файлы для обмена на трекере предоставлены пользователями сайта, и администрация не несёт ответственности за их содержание. Просьба не заливать файлы, защищенные авторскими правами, а также файлы нелегального содержания!

    [Профиль] [ЛС]
    Показать сообщения:    
    Ответить на тему

    Текущее время: Сегодня, в 11:02

    Часовой пояс: GMT + 2



    Вы не можете начинать темы
    Вы не можете отвечать на сообщения
    Вы не можете редактировать свои сообщения
    Вы не можете удалять свои сообщения
    Вы не можете голосовать в опросах
    Вы не можете прикреплять файлы к сообщениям
    Вы не можете скачивать файлы