BitTorrentTracker PerecTracker.org
BitTorrentTracker PerecTracker.org
    
Регистрация  ·  Вход
 
 · 
Забыли пароль?

  • Мой маленький пони: Девочки из Эквестрии - Радужный рок / My Little Pony: Equestria Girls - Rainbow Rocks (Джэйсон Тиссен / Jayson Thiessen, Иши Руделл / Ishi Rudell) [2014, комедия, фэнтези, WEB-DL 1080p] Dub (GALA Voices) + VO (Трина Дубовицкая)

    Ответить на тему
     
    Автор Сообщение

    Columb

    Создавать темы 01-Ноя-2014 10:23

           

    [Цитировать]

    Мой маленький пони: Девочки из Эквестрии - Радужный рок / My Little Pony: Equestria Girls - Rainbow RocksСтрана: США, Канада
    Жанр: Приключения, комедия, семейный, фэнтези
    Продолжительность: 01:13:19
    Год выпуска: 2014
    Перевод 1: Любительский дублированный (GALA Voices) (Сэмпл)
    Перевод 2: Одноголосый закадровый (Трина Дубовицкая)
    Русские субтитры: есть
    Режиссёр: Джэйсон Тиссен / Jayson Thiessen, Иши Руделл / Ishi Rudell
    Роли озвучивали: Тара Стронг, Эшли Болл, Андреа Либман, Табита Сен-Жермен, Кэти Уэслак, Кэтлин Барр и другие.
    Описание: В школе Кантерлот Хай состоится музыкальное представление, в котором решают поучаствовать Рэйнбоу Дэш, Эпплджек, Пинки Пай, Рэрити и Флаттершай со своей новой группой - "The Rainbooms". Но когда на сцене появляется новая группа девочек с броским названием "The Dazzlings", всё очень быстро превращается из дружеского состязания в настоящую Битву Групп. В то время как между противниками нарастает напряжение, исправившаяся Сансет Шиммер узнаёт, что девочки из группы "The Dazzlings" вовсе не так просты, как могут показаться, и преследуют цели куда более зловещие, чем завоевание титула Лучшей Группы Кантерлот Хай. "The Rainbooms" обращаются за помощью к Принцессе Твайлайт, чтобы та вернулась в их мир и помогла сотворить музыкальное контр-заклинание, способное помочь им в битве, которая определит дальнейшую судьбу всей школы.
    Доп. информация: В раздаче представлен любительский дубляж команды GALA Voices и оперативная любительская озвучка Трины Дубовицкой, за что всем им огромное спасибо. Также присутствует оригинальная аудиодорожка и русские и английские субтитры.
    Рейтинг:
    Качество: WEB-DL 1080p [iTunes]
    Формат: MKV
    Видео: AVC, 1904x1064 (16:9), 23.976 fps, ~4839 kbps
    Аудио 1 Rus: AC3 48 kHz, 2 ch, 192 kbps (GALA Voices)
    Аудио 2 Rus: AC3 48 kHz, 6 ch, 384 kbps (Трина Дубовицкая)
    Аудио 3 Eng: AC3 48 kHz, 6 ch, 384 kbps (Оригинальный звук)
    Субтитры 1 Rus: (Anon2Anon)
    Субтитры 2 Rus: (TheDoctor Team)
    Субтитры 3 Eng: (Anon2Anon) (английские)
    Формат субтитров: softsub (ass) (цветные)

    Скриншоты

    Подробные технические данные

    ОбщееУникальный идентификатор : 252232048598889746604356938655610448932 (0xBDC22022EF7EAA9E86A07080A5742C24)Полное имя : C:\Video\mlp.eg.rainbow.rocks.2014.web-dl.1080p.mkvФормат : MatroskaВерсия формата : Version 4 / Version 2Размер файла : 3,03 ГбайтПродолжительность : 1 ч. 13 м.Общий поток : 5917 Кбит/секДата кодирования : UTC 2014-11-01 07:03:20Программа кодирования : mkvmerge v7.2.0 ('On Every Street') 32bit built on Sep 13 2014 15:42:11Библиотека кодирования : libebml v1.3.0 + libmatroska v1.4.1_STATISTICS_WRITING_APP : mkvmerge v7.2.0 ('On Every Street') 32bit built on Sep 13 2014 15:42:11_STATISTICS_WRITING_DATE_UTC : 2014-11-01 07:03:20_STATISTICS_TAGS : BPS DURATION NUMBER_OF_FRAMES NUMBER_OF_BYTESDURATION : 01:13:19.040000000NUMBER_OF_FRAMES : 137470NUMBER_OF_BYTES : 105576960
    ВидеоИдентификатор : 1Формат : AVCФормат/Информация : Advanced Video CodecПрофиль формата : High@L4.0Параметр CABAC формата : ДаПараметр ReFrames формата : 4 кадраИдентификатор кодека : V_MPEG4/ISO/AVCПродолжительность : 1 ч. 13 м.Битрейт : 4839 Кбит/секШирина : 1904 пикселяВысота : 1064 пикселяСоотношение сторон : 16:9Режим частоты кадров : ПостоянныйЧастота кадров : 23,976 кадра/секЦветовое пространство : YUVСубдискретизация насыщенности : 4:2:0Битовая глубина : 8 битТип развёртки : ПрогрессивнаяБит/(Пиксели*Кадры) : 0.100Размер потока : 2,48 Гбайт (82%)Язык : EnglishDefault : ДаForced : НетОсновные цвета : BT.709Характеристики трансфера : BT.709Коэффициенты матрицы : BT.709
    Аудио #1Идентификатор : 2Формат : AC-3Формат/Информация : Audio Coding 3Расширение режима : CM (complete main)Параметр Endianness формата : BigИдентификатор кодека : A_AC3Продолжительность : 1 ч. 13 м.Вид битрейта : ПостоянныйБитрейт : 192 Кбит/секКаналы : 2 каналаРасположение каналов : Front: L RЧастота : 48,0 КГцБитовая глубина : 16 битМетод сжатия : С потерямиРазмер потока : 101 Мбайт (3%)Заголовок : GALA VoicesЯзык : RussianDefault : ДаForced : Нет
    Аудио #2Идентификатор : 3Формат : AC-3Формат/Информация : Audio Coding 3Расширение режима : CM (complete main)Параметр Endianness формата : BigИдентификатор кодека : A_AC3Продолжительность : 1 ч. 13 м.Вид битрейта : ПостоянныйБитрейт : 384 Кбит/секКаналы : 6 каналовРасположение каналов : Front: L C R, Side: L R, LFEЧастота : 48,0 КГцБитовая глубина : 16 битМетод сжатия : С потерямиРазмер потока : 201 Мбайт (6%)Заголовок : Трина ДубовицкаяЯзык : RussianDefault : НетForced : Нет
    Аудио #3Идентификатор : 4Формат : AC-3Формат/Информация : Audio Coding 3Расширение режима : CM (complete main)Параметр Endianness формата : BigИдентификатор кодека : A_AC3Продолжительность : 1 ч. 13 м.Вид битрейта : ПостоянныйБитрейт : 384 Кбит/секКаналы : 6 каналовРасположение каналов : Front: L C R, Side: L R, LFEЧастота : 48,0 КГцБитовая глубина : 16 битМетод сжатия : С потерямиРазмер потока : 201 Мбайт (6%)Заголовок : OriginalЯзык : EnglishDefault : НетForced : Нет
    Текст #1Идентификатор : 5Формат : ASSИдентификатор кодека : S_TEXT/ASSИдентификатор кодека/Информация : Advanced Sub Station AlphaМетод сжатия : Без потерьЗаголовок : Anon2AnonЯзык : RussianDefault : НетForced : Нет
    Текст #2Идентификатор : 6Формат : ASSИдентификатор кодека : S_TEXT/ASSИдентификатор кодека/Информация : Advanced Sub Station AlphaМетод сжатия : Без потерьЗаголовок : TheDoctor TeamЯзык : RussianDefault : НетForced : Нет
    Текст #3Идентификатор : 7Формат : ASSИдентификатор кодека : S_TEXT/ASSИдентификатор кодека/Информация : Advanced Sub Station AlphaМетод сжатия : Без потерьЗаголовок : OriginalЯзык : EnglishDefault : НетForced : Нет
    Меню00:00:00.000 : en:Chapter 100:03:40.000 : en:Chapter 200:10:18.000 : en:Chapter 300:17:35.000 : en:Chapter 400:24:45.000 : en:Chapter 500:27:34.000 : en:Chapter 600:56:54.000 : en:Chapter 701:09:26.000 : en:Chapter 801:10:28.000 : en:Chapter 9
    Скачать .torrent

    Скачать торрент-файл бесплатно и на максимальной скорости!

    Как скачивать? · Что такое торрент? · Рейтинг и ограничения

    !ВНИМАНИЕ!
    Сайт не распространяет и не хранит электронные версии произведений, а занимается лишь лишь предоставлением доступа к создаваемому пользователями каталогу ссылок на торрент-файлы, которые содержат только списки хеш-сумм, убедительная просьба с жалобами обращаться напрямую к пользователю. Файлы для обмена на трекере предоставлены пользователями сайта, и администрация не несёт ответственности за их содержание. Просьба не заливать файлы, защищенные авторскими правами, а также файлы нелегального содержания!

    [Профиль] [ЛС]
    Показать сообщения:    
    Ответить на тему

    Текущее время: Сегодня, в 14:24

    Часовой пояс: GMT + 2



    Вы не можете начинать темы
    Вы не можете отвечать на сообщения
    Вы не можете редактировать свои сообщения
    Вы не можете удалять свои сообщения
    Вы не можете голосовать в опросах
    Вы не можете прикреплять файлы к сообщениям
    Вы не можете скачивать файлы