Register  ·  Log in
Forgot password?

  • Город, который боялся заката / The Town That Dreaded Sundown (Альфонсо Гомез-Рейон / Alfonso Gomez-Rejon) [2014, США, ужасы, триллер, HDRip] VO (Виктор Береговых)

    Reply to topic
    Author Message


    Post 31-Oct-2014 22:52



    Город, который боялся заката / The Town That Dreaded Sundown
    Страна: США
    Жанр: ужасы, триллер
    Год выпуска: 2014
    Продолжительность: 01:26:03
    Перевод: Одноголосый закадровый (Виктор Береговых) - по переводу Михаила Васильева
    Cубтитры: нет
    Режиссер: Альфонсо Гомез-Рейон / Alfonso Gomez-Rejon
    В ролях: Эддисон Тимлин, Вероника Картрайт, Гэри Коул, Эдвард Херрманн, Джошуа Леонард, Дэнис О’Хэйр, Спенсер Трит Кларк, Эд Лотер, Уэс Чэтэм, Старлетт Миариаунии
    Описание: 65 лет назад серийный убийца в маске терроризировал жителей небольшого города на западе США. И теперь так называемые «убийства в лунном свете» начинаются вновь. Кто за ними стоит? Подражатель, или что-то куда более зловещее? Одинокая школьница, хранящая свой собственный темный секрет, может стать ключом к пониманию происходящего…
    Качество видео: HDRip
    Формат видео: AVI
    Видео: XviD, 640x272 (2.35:1), 23.976 fps, 996 kbps avg, 0.239 bit/pixel
    Аудио: AC3, 48.0 KHz, 192 Kbps, 2 channels


    Format : AVI
    Format/Info : Audio Video Interleave
    File size : 737 MiB
    Duration : 1h 26mn
    Overall bit rate : 1 198 Kbps
    Writing application : VirtualDubMod (build 2540/release)
    Writing library : VirtualDubMod build 2540/release
    ID : 0
    Format : MPEG-4 Visual
    Format profile : AdvancedSimple@L5
    Format settings, BVOP : Yes
    Format settings, QPel : No
    Format settings, GMC : No warppoints
    Format settings, Matrix : Default (H.263)
    Muxing mode : Packed bitstream
    Codec ID : XVID
    Codec ID/Hint : XviD
    Duration : 1h 26mn
    Bit rate : 996 Kbps
    Width : 640 pixels
    Height : 272 pixels
    Display aspect ratio : 2.35:1
    Frame rate : 23.976 fps
    Resolution : 24 bits
    Colorimetry : 4:2:0
    Scan type : Progressive
    Bits/(Pixel*Frame) : 0.239
    Stream size : 613 MiB (83%)
    Writing library : XviD 65
    ID : 1
    Format : AC-3
    Format/Info : Audio Coding 3
    Codec ID : 2000
    Duration : 1h 26mn
    Bit rate mode : Constant
    Bit rate : 192 Kbps
    Channel(s) : 2 channels
    Channel positions : L R
    Sampling rate : 48.0 KHz
    Stream size : 118 MiB (16%)
    Alignment : Split accross interleaves
    Interleave, duration : 42 ms (1.00 video frame)
    Interleave, preload duration : 500 ms

    Скриншот c названием фильма


    Download .torrent

    Download free and at maximum speed!

    How to Download? · What is a torrent? · Ratings and Limitations

    The site does not extend and does not store electronic(digital) versions of products, and only gives access to a reference catalogue created by users on torrent-files which contain only lists of the hash-sums, the earnest entreaty, with complaints(abuse) to access directly to the user. Files for an exchange on tracker are given by users of a site, and the administration does not bear the responsibility for their maintenance. The request to not fill in the files protected by copyrights, and also files of the illegal maintenance!

    [Profile] [PM]
    Display posts from previous:    
    Reply to topic

    The time now is: Today 23:49

    All times are GMT + 3 Hours

    You cannot post new topics in this forum
    You cannot reply to topics in this forum
    You cannot edit your posts in this forum
    You cannot delete your posts in this forum
    You cannot vote in polls in this forum
    You cannot attach files in this forum
    You cannot download files in this forum