BitTorrentTracker PerecTracker.org
BitTorrentTracker PerecTracker.org
    
Регистрация  ·  Вход
 
 · 
Забыли пароль?

  • Небеса реальны / Heaven Is for Real (Рэндалл Уоллес / Randall Wallace) [2014, США, драма, BDRip-AVC] MVO

    Ответить на тему
     
    Автор Сообщение

    Columb

    Создавать темы 31-Окт-2014 21:48

           

    [Цитировать]

    Небеса реальны / Heaven Is for Real
    Страна: США
    Жанр: драма
    Год выпуска: 2014
    Продолжительность: 01:39:30
    Перевод: Профессиональный (многоголосый закадровый), Blu-ray EUR
    Cубтитры: нет
    Режиссер: Рэндалл Уоллес / Randall Wallace
    В ролях: Грег Киннер, Келли Райлли, Томас Хейден Чёрч, Коннор Корам, Лэйн Стайлз, Марго Мартиндейл, Джейкоб Варгас, Таня Ромеро, Дансо Гордон, Роб Моран
    Описание: Главный герой меняет свое мировоззрение после того, как его 4-летний сын выходит из комы и утверждает, что был в раю. В доказательство он приводит факты из жизни их семьи, которые просто не мог знать.--Доп. информация:
    Фильм написан по книге «Небеса действительно существуют» (Heaven Is for Real).
    Фильм основан на реальных событиях.
    Навигация по главам: есть
    Исходник: Heaven Is for Real (2014) Blu-ray EUR 1080p AVC DD5.1-HDCity
    Сэмпл: https://yadi.sk/i/LRYDDHEpcP3xh
    Качество видео: BDRip-AVC
    Формат видео: MKV
    Видео: x264, 1152x480 (2.40:1), 23.976 fps, ~1653 kbps, 0.125 bit/pixel
    Аудио: AC3, 48.0 KHz, 448 Kbps, 6 ch

    MediaInfo

    General
    Unique ID : 240644219881904319981372842763746042234 (0xB50A64121DAB18B58BBAE6CD35BC617A)
    Complete name : Небеса реальны (2014).mkv
    Format : Matroska
    Format version : Version 4 / Version 2
    File size : 1.46 GiB
    Duration : 1h 39mn
    Overall bit rate : 2 103 Kbps
    Movie name : Небеса реальны / Heaven Is for Real (Рэндалл Уоллес / Randall Wallace) [2014, США, драма] ~asdit~
    Encoded date : UTC 2014-10-30 06:49:15
    Writing application : mkvmerge v6.8.0 ('Theme for Great Cities') 64bit built on Mar 2 2014 21:34:26
    Writing library : libebml v1.3.0 + libmatroska v1.4.1
    Attachment : Yes
    Video
    ID : 1
    Format : AVC
    Format/Info : Advanced Video Codec
    Format profile : High@L4.0
    Format settings, CABAC : Yes
    Format settings, ReFrames : 12 frames
    Codec ID : V_MPEG4/ISO/AVC
    Duration : 1h 39mn
    Bit rate : 1 653 Kbps
    Width : 1 152 pixels
    Height : 480 pixels
    Display aspect ratio : 2.40:1
    Frame rate mode : Constant
    Frame rate : 23.976 fps
    Color space : YUV
    Chroma subsampling : 4:2:0
    Bit depth : 8 bits
    Scan type : Progressive
    Bits/(Pixel*Frame) : 0.125
    Stream size : 1.12 GiB (77%)
    Title : BDRip from Blu-ray EUR 1080p by BLUE_LIFE (HDCLUB)
    Writing library : x264 core 130 r2273 b3065e6
    Encoding settings : cabac=1 / ref=12 / deblock=1:-1:-1 / analyse=0x3:0x133 / me=umh / subme=9 / psy=1 / psy_rd=1.00:0.10 / mixed_ref=1 / me_range=32 / chroma_me=1 / trellis=2 / 8x8dct=1 / cqm=0 / deadzone=21,11 / fast_pskip=1 / chroma_qp_offset=-3 / threads=9 / lookahead_threads=2 / sliced_threads=0 / nr=0 / decimate=1 / interlaced=0 / bluray_compat=0 / constrained_intra=0 / bframes=12 / b_pyramid=2 / b_adapt=2 / b_bias=0 / direct=3 / weightb=1 / open_gop=0 / weightp=2 / keyint=250 / keyint_min=23 / scenecut=40 / intra_refresh=0 / rc_lookahead=60 / rc=2pass / mbtree=1 / bitrate=1653 / ratetol=1.0 / qcomp=0.60 / qpmin=0 / qpmax=69 / qpstep=4 / cplxblur=20.0 / qblur=0.5 / ip_ratio=1.40 / aq=1:1.00
    Language : English
    Default : Yes
    Forced : No
    Audio
    ID : 2
    Format : AC-3
    Format/Info : Audio Coding 3
    Mode extension : CM (complete main)
    Format settings, Endianness : Big
    Codec ID : A_AC3
    Duration : 1h 39mn
    Bit rate mode : Constant
    Bit rate : 448 Kbps
    Channel(s) : 6 channels
    Channel positions : Front: L C R, Side: L R, LFE
    Sampling rate : 48.0 KHz
    Bit depth : 16 bits
    Compression mode : Lossy
    Stream size : 319 MiB (21%)
    Title : Многоголосый закадровый, Blu-ray EUR
    Language : Russian
    Default : Yes
    Forced : No
    Menu
    00:00:00.000 : en:Chapter01
    00:04:57.255 : en:Chapter02
    00:11:09.669 : en:Chapter03
    00:17:20.080 : en:Chapter04
    00:22:07.617 : en:Chapter05
    00:26:00.100 : en:Chapter06
    00:33:09.487 : en:Chapter07
    00:40:09.448 : en:Chapter08
    00:44:37.841 : en:Chapter09
    00:49:48.735 : en:Chapter10
    00:56:35.308 : en:Chapter11
    01:03:18.085 : en:Chapter12
    01:06:33.447 : en:Chapter13
    01:13:07.966 : en:Chapter14
    01:16:29.585 : en:Chapter15
    01:23:51.484 : en:Chapter16

    Скриншоты

    Скачать .torrent

    Скачать торрент-файл бесплатно и на максимальной скорости!

    Как скачивать? · Что такое торрент? · Рейтинг и ограничения

    !ВНИМАНИЕ!
    Сайт не распространяет и не хранит электронные версии произведений, а занимается лишь лишь предоставлением доступа к создаваемому пользователями каталогу ссылок на торрент-файлы, которые содержат только списки хеш-сумм, убедительная просьба с жалобами обращаться напрямую к пользователю. Файлы для обмена на трекере предоставлены пользователями сайта, и администрация не несёт ответственности за их содержание. Просьба не заливать файлы, защищенные авторскими правами, а также файлы нелегального содержания!

    [Профиль] [ЛС]
    Показать сообщения:    
    Ответить на тему

    Текущее время: Сегодня, в 07:15

    Часовой пояс: GMT + 2



    Вы не можете начинать темы
    Вы не можете отвечать на сообщения
    Вы не можете редактировать свои сообщения
    Вы не можете удалять свои сообщения
    Вы не можете голосовать в опросах
    Вы не можете прикреплять файлы к сообщениям
    Вы не можете скачивать файлы