BitTorrentTracker PerecTracker.org
BitTorrentTracker PerecTracker.org
    
Регистрация  ·  Вход
 
 · 
Забыли пароль?

  • Не вижу зла 2 / See No Evil 2 (Джен Соска / Jen Soska, Сильвия Соска / Sylvia Soska) [2014, США, ужасы, HDRip] VO (МЕГАПЫХАРЬ)

    Ответить на тему
     
    Автор Сообщение

    Columb

    Создавать темы 31-Окт-2014 21:41

           

    [Цитировать]

    Не вижу зла 2 / See No Evil 2
    Страна: США
    Жанр: ужасы
    Год выпуска: 2014
    Продолжительность: 01:30:12
    Перевод: Любительский (одноголосый закадровый) [МЕГАПЫХАРЬ]
    Cубтитры: нет
    Оригинальная аудиодорожка: нет
    Режиссер: Джен Соска / Jen Soska, Сильвия Соска / Sylvia Soska
    В ролях: Глен Джейкобс, Даниэль Харрис, Кэтрин Изабель, Каж-Эрик Эриксен, Челан Симмонс, Грейстон Холт, Ли Мадждуб, Майкл Эклунд, Риз Александр, Келли-Рут Мерсье.
    Описание: Кошмар, закончившийся в первом фильме, продолжается: Джейкоб Гуднайт восстает из мертвых в городском морге, после смертельной резни в отеле «Блэкуэлл». В этом зловещем подземном хранилище для мертвых группе студентов придется бороться с невменяемым психопатом, который вновь начинает забирать их одного за другим.

    скачать СЕМПЛ с multi-up
    Озвучил и перевел: МЕГАПЫХАРЬ
    Качество видео: HDRip
    Формат видео: AVI
    Видео: 720x400 (1.80:1), 23.976 fps, XviD build 73 ~1809 kbps avg, 0.26 bit/pixel
    Аудио: 48 kHz, AC3 Dolby Digital, 2/0 (L,R) ch, ~192 kbps

    MediaInfo

    Format : AVI
    Format/Info : Audio Video Interleave
    File size : 1.27 GiB
    Duration : 1h 30mn
    Overall bit rate : 2 011 Kbps
    Writing application : VirtualDubMod 1.5.10.3 | www.virtualdub-fr.org || (build 2550/release)
    Writing library : VirtualDubMod build 2550/release
    Video #0
    ID : 0
    Format : MPEG-4 Visual
    Format profile : Advanced Simple@L5
    Format settings, BVOP : 1
    Format settings, QPel : Yes
    Format settings, GMC : No warppoints
    Format settings, Matrix : Default (H.263)
    Codec ID : XVID
    Codec ID/Hint : XviD
    Duration : 1h 30mn
    Bit rate : 1 810 Kbps
    Width : 720 pixels
    Height : 400 pixels
    Display aspect ratio : 16:9
    Frame rate : 23.976 fps
    Color space : YUV
    Chroma subsampling : 4:2:0
    Bit depth : 8 bits
    Scan type : Progressive
    Compression mode : Lossy
    Bits/(Pixel*Frame) : 0.262
    Stream size : 1.14 GiB (90%)
    Writing library : XviD 73
    Audio #1
    ID : 1
    Format : AC-3
    Format/Info : Audio Coding 3
    Mode extension : CM (complete main)
    Codec ID : 2000
    Duration : 1h 30mn
    Bit rate mode : Constant
    Bit rate : 192 Kbps
    Channel(s) : 2 channels
    Channel positions : Front: L R
    Sampling rate : 48.0 KHz
    Bit depth : 16 bits
    Compression mode : Lossy
    Stream size : 124 MiB (10%)
    Alignment : Split accross interleaves
    Interleave, duration : 42 ms (1.00 video frame)
    Interleave, preload duration : 500 ms

    Скриншот c названием фильма

    Скриншоты

    Релиз от:
    Скачать .torrent

    Скачать торрент-файл бесплатно и на максимальной скорости!

    Как скачивать? · Что такое торрент? · Рейтинг и ограничения

    !ВНИМАНИЕ!
    Сайт не распространяет и не хранит электронные версии произведений, а занимается лишь лишь предоставлением доступа к создаваемому пользователями каталогу ссылок на торрент-файлы, которые содержат только списки хеш-сумм, убедительная просьба с жалобами обращаться напрямую к пользователю. Файлы для обмена на трекере предоставлены пользователями сайта, и администрация не несёт ответственности за их содержание. Просьба не заливать файлы, защищенные авторскими правами, а также файлы нелегального содержания!

    [Профиль] [ЛС]
    Показать сообщения:    
    Ответить на тему

    Текущее время: Сегодня, в 07:48

    Часовой пояс: GMT + 2



    Вы не можете начинать темы
    Вы не можете отвечать на сообщения
    Вы не можете редактировать свои сообщения
    Вы не можете удалять свои сообщения
    Вы не можете голосовать в опросах
    Вы не можете прикреплять файлы к сообщениям
    Вы не можете скачивать файлы