BitTorrentTracker PerecTracker.org
BitTorrentTracker PerecTracker.org
    
Регистрация  ·  Вход
 
 · 
Забыли пароль?

  • Шаг вперёд: Всё или ничего / Step Up All In (Триш Си / Trish Sie) [2014, США, драма, мелодрама, музыка, BDRip] Dub iTunes

    Ответить на тему
     
    Автор Сообщение

    Columb

    Создавать темы 31-Окт-2014 21:38

           

    [Цитировать]

    Шаг вперёд: Всё или ничего / Step Up All In
    «Every step has led to this»
    -Страна: США / Offspring Entertainment, Summit Entertainment
    Жанр: драма, мелодрама, музыка
    Год выпуска: 2014
    Продолжительность: 01:51:51
    Перевод: Профессиональный (дублированный) лицензия iTunes
    Cубтитры: нет
    Режиссёр: Триш Си / Trish Sie
    В ролях: Райан Гузман, Бриана Эвиган, Стивен Босс, Миша Гэбриел Хэмилтон, Изабелла Мико, Элисон Стоунер, Адам Дж. Севани, Стивен Стево Джонс, Дэвид Шрейбман, Мари Кода.
    Описание: В переливающемся огнями Лас-Вегасе лучшие танцоры планеты сойдутся в батле, который решит все. Талантливый самоучка Шон и красотка Энди, мечтающие о славе и богатстве, примут участие в популярном реалити-шоу и бросят вызов «непобедимым» командам противников, а главное — самим себе. Смогут ли они преодолеть страх, пережить предательство и обуздать страсть, чтобы стать первыми и осуществить свои мечты?-Рейтинг
    imdb.com: 6.0 (9 071)
    kinopoisk.ru: 6.416 (6 983)
    MPAA: - детям до 13 лет просмотр не желателен-Сэмпл: http://multi-up.com/1009561-Качество видео: BDRip [Step.Up.All.In.2014.1080p.BluRay / kinozal]
    Формат видео: AVI
    Видео: XviD build 65, 704x400 (16:9), 23.976 fps, ~1477 kbps avg, 0.219 bit/pixel
    Аудио: 48 kHz, AC3 Dolby Digital, 3/2 (L,C,R,l,r) + LFE ch, ~384 kbps avg (Dub)
    -

    MediaInfo

    Общее
    Полное имя : D:\Step.Up.All.In.2014.Dub.BDRip.1,46Gb.XviD.AC3.avi
    Формат : AVI
    Формат/Информация : Audio Video Interleave
    Размер файла : 1,46 Гбайт
    Продолжительность : 1 ч. 51 м.
    Общий поток : 1870 Кбит/сек
    Название фильма : Step Up All In 2014
    Режиссёр : Trish Sie
    Дата записи : 29.10.2014
    Программа кодирования : VirtualDubModRus 1.5.10.2 (build 2542/release)
    Библиотека кодирования : VirtualDubMod build 2542/release
    Правообладатель : Rutracker.org
    Примечание : MooN_WalkeR
    Видео
    Идентификатор : 0
    Формат : MPEG-4 Visual
    Профиль формата : Advanced Simple@L5
    Параметр BVOP формата : 1
    Параметр QPel формата : Нет
    Параметр GMC формата : Без точки перехода
    Параметр матрицы формата : Выборочная
    Идентификатор кодека : XVID
    Идентификатор кодека/Подсказка : XviD
    Продолжительность : 1 ч. 51 м.
    Битрейт : 1477 Кбит/сек
    Ширина : 704 пикселя
    Высота : 400 пикселей
    Соотношение сторон : 16:9
    Частота кадров : 23,976 кадра/сек
    Цветовое пространство : YUV
    Субдискретизация насыщенности : 4:2:0
    Битовая глубина : 8 бит
    Тип развёртки : Прогрессивная
    Метод сжатия : С потерями
    Бит/(Пиксели*Кадры) : 0.219
    Размер потока : 1,15 Гбайт (79%)
    Библиотека кодирования : XviD 65
    Аудио
    Идентификатор : 1
    Формат : AC-3
    Формат/Информация : Audio Coding 3
    Расширение режима : CM (complete main)
    Параметр Endianness формата : Big
    Идентификатор кодека : 2000
    Продолжительность : 1 ч. 51 м.
    Вид битрейта : Постоянный
    Битрейт : 384 Кбит/сек
    Каналы : 6 каналов
    Расположение каналов : Front: L C R, Side: L R, LFE
    Частота : 48,0 КГц
    Битовая глубина : 16 бит
    Метод сжатия : С потерями
    Размер потока : 307 Мбайт (21%)
    Выравнивание : Разделение по промежуткам
    Продолжительность промежутка : 42 мс. (1,00 видеокадр)
    Время предзагрузки промежутка : 500 мс.
    Заголовок : Dub

    Скриншоты


    Скачать .torrent

    Скачать торрент-файл бесплатно и на максимальной скорости!

    Как скачивать? · Что такое торрент? · Рейтинг и ограничения

    !ВНИМАНИЕ!
    Сайт не распространяет и не хранит электронные версии произведений, а занимается лишь лишь предоставлением доступа к создаваемому пользователями каталогу ссылок на торрент-файлы, которые содержат только списки хеш-сумм, убедительная просьба с жалобами обращаться напрямую к пользователю. Файлы для обмена на трекере предоставлены пользователями сайта, и администрация не несёт ответственности за их содержание. Просьба не заливать файлы, защищенные авторскими правами, а также файлы нелегального содержания!

    [Профиль] [ЛС]
    Показать сообщения:    
    Ответить на тему

    Текущее время: Сегодня, в 06:13

    Часовой пояс: GMT + 2



    Вы не можете начинать темы
    Вы не можете отвечать на сообщения
    Вы не можете редактировать свои сообщения
    Вы не можете удалять свои сообщения
    Вы не можете голосовать в опросах
    Вы не можете прикреплять файлы к сообщениям
    Вы не можете скачивать файлы