BitTorrentTracker PerecTracker.org
BitTorrentTracker PerecTracker.org
    
Регистрация  ·  Вход
 
 · 
Забыли пароль?

  • Карпов. Сезон Первый - Сезон Третий (Сезон 1-3, Серия 1- 94 из 94) (Иван Щёголев, Сергей Лесогоров) [2012-2014, Детектив , драма , криминальный сериал, DVВRip-AVC]

    Ответить на тему
     
    Автор Сообщение

    Враг Нароода

    Создавать темы 31-Окт-2014 12:46

           

    [Цитировать]

    --Карпов. Сезон Первый - Сезон Третий 1- 94 из 94 ----Год выпуска: 2012-2014
    Выпущено: РОССИЯ ,телекомпания ООО "DIXI TV" по заказу НТВ, ООО "Фильм 232"
    Жанр: Детектив , драма , криминальный сериал
    Продолжительность: 00:45:00
    Сезон: 1-3
    Серия:1- 94
    Количество серий в сезоне: 94
    Перевод:НЕ ТРЕБУЕТСЯ
    Субтитры : Отсутствуют----Режиссер: Иван Щёголев, Сергей Лесогоров--В ролях: Иван Щёголев, Сергей Лесогоров
    В ролях: Владислав Котлярский, Степан Рожнов, Николай Козак, Анна Михайловская, Максим Щёголев, Юлия Майборода, Андрей Сорока, Виктория Тарасова, Дмитрий Мазуров, Тимур Ефременков, Дмитрий Блажко, Денис Рожков, Ева Авеева, Мария Болонкина, Владимир Фекленко, Владимир Яковлев, Мария Рассказова, Татьяна Исаева, Анатолий Петров, Екатерина Маликова, Наталья Гудкова, Мария Болтнева, Александр Бобров, Александр Касаткин, Ольга Шеховцова, Валерий Новиков, Александр Павленко, Олег Евтеев, Екатерина Шмакова, Анастасия Маринина
    -- Ну что, урод?! Каково встретиться с тем, кто в состоянии дать сдачи?! Стас Карпов
    Не буду разглагольствовать по поводу второго сезона, ибо только начало, и судить ещё рановато, но тем не менее…
    Стас Карпов вернулся! Поклонники «Глухаря» приняли крайне прохладно «Пятницкий», но «Карпов» был встречен на ура! Несомненно, главная причина этому — Владислав Котлярский и его актёрская игра. Я уже писал неоднократно, что он Актёр огромного таланта. Его можно назвать «однотипным», но этот образ, образ Стаса Карпова, затмевает напрочь всех современных универсальных «дарований» с их персонажами… Так что, и в однотипности тоже есть талант! Можно играть одну роль несколько лет подряд, и эта роль не надоест людям. Они и дальше будут с нетерпением ждать всё нового и нового появления.
    Во втором сезоне благо сохранилась атмосфера, добавились новые-старые персонажи, такие как Денис Антошин и Николай Тарасов (как говорится, кто в теме, тот поймёт), есть шикарные реплики от Стаса Карпова, есть интрига, есть интерес к сериалу, в общем есть всё! За это огромное спасибо Илье Куликову, сценаристу. Кстати, если так случится, что наткнётесь на какой-нибудь фильм/сериал, где Илья Куликов будет указан сценаристом — смело смотрите! Не разочаруетесь! «Глухарь», «Меч», «Игра», «Шахта», «Карпов»… и это далеко не всё!
    Кстати, оказывается, что сериал «Карпов» по популярности на ТВ уступает только передачи Андрея Малахова «Пусть говорят!», это так, небольшое отступление…
    НТВ делало множество однотипнейших, скучнейших, бестолковейших сериалов о «ментах», названия которых уже вряд ли вспомнишь. Забыли, не смотрели — ну и Бог с ними, ничего не потеряли. «Карпов» же обязателен к просмотру!
    --Качество: DVВRip-AVC
    Формат: MPEG-4
    Видео кодек: H264
    Видео: 3654Кбит/сек,720х576@1280х720(`6/9),в 25.000кадр/сек,AVC(Baseline@L3.1)(1Ref Frames)
    Аудио кодек: AAC
    Аудио Russian :318Кбит/сек,48.0КГц,2канала,AAC,(LC)--

    Доп. информация:

    Звуковая дорожка сделана путем наложения чистого голоса озвучивателей на центральный канал оригинальной дорожки. Качество идентично звуковой дорожке.
    --

    MediaInfo Карпов. Сезон Первый

    General
    Полное имя : F:\К И Н О\Н А Ш Е К И Н О\КАРПОВ\KARPOV_S01_-_S03_2012_-_2014_RUS[NTV_Russia]_x264_Nikolai.Baranov_DVB-AVC\S01\1\Karpov_S01E01_2012_RUS[NTV_Russia]_x264_Nikolai.Baranov_DVB-AVC.mp4
    Формат : MPEG-4
    Профиль формата : Base Media
    Идентификатор кодека : isom
    Размер файла : 1.42 GiB
    Продолжительность : 51mn 8s
    Режим общего битрейта : Variable
    Общий поток : 3 976 Kbps
    Дата кодирования : UTC 2014-10-08 17:56:51
    Дата пометки : UTC 2014-10-08 17:56:51
    Программа кодирования : Lavf51.12.1
    Video
    Идентификатор : 1
    Формат : AVC
    Формат/Информация : Advanced Video Codec
    Профиль формата : Baseline@L3.1
    Параметр CABAC формата : No
    Параметр ReFrames формата : 1 frame
    Параметр GOP формата : M=1, N=12
    Идентификатор кодека : avc1
    Идентификатор кодека/Информация : Advanced Video Coding
    Продолжительность : 51mn 8s
    Вид битрейта : Variable
    Битрейт : 3 654 Kbps
    Максимальный битрейт : 5 250 Kbps
    Ширина : 1 280 pixels
    Высота : 720 pixels
    Соотношение сторон : 16:9
    Режим частоты кадров : Constant
    Частота кадров : 25.000 fps
    Частота кадров в оригинале : 24.000 fps
    Цветовое пространство : YUV
    Субдискретизация насыщенности : 4:2:0
    Битовая глубина : 8 bits
    Тип развёртки : Progressive
    Бит/(Пиксели*Кадры) : 0.159
    Размер потока : 1.31 GiB (92%)
    Дата кодирования : UTC 2014-10-08 17:56:51
    Дата пометки : UTC 2014-10-08 17:56:51
    Audio
    Идентификатор : 2
    Формат : AAC
    Формат/Информация : Advanced Audio Codec
    Профиль формата : LC
    Идентификатор кодека : 40
    Продолжительность : 51mn 8s
    Вид битрейта : Variable
    Битрейт : 318 Kbps
    Каналы : 2 channels
    Channel(s)_Original : 6 channels
    Расположение каналов : Front: L C R, Side: L R, LFE
    Частота : 48.0 KHz
    Метод сжатия : Lossy
    Размер потока : 116 MiB (8%)
    Дата кодирования : UTC 2014-10-08 17:56:51
    Дата пометки : UTC 2014-10-08 17:56:51
    --

    MediaInfo Карпов. Карпов. Сезон Второй

    General
    Полное имя : F:\К И Н О\Н А Ш Е К И Н О\КАРПОВ\KARPOV_S01_-_S03_2012_-_2014_RUS[NTV_Russia]_x264_Nikolai.Baranov_DVB-AVC\S02\1\Karpov_S02E01_2013_RUS[NTV_Russia]_DD5.1_x264_Nikolai.Baranov_DVB-AVC.mp4
    Формат : MPEG-4
    Профиль формата : Base Media
    Идентификатор кодека : isom
    Размер файла : 1.07 GiB
    Продолжительность : 44mn 14s
    Режим общего битрейта : Variable
    Общий поток : 3 450 Kbps
    Дата кодирования : UTC 2013-10-08 06:54:34
    Дата пометки : UTC 2013-10-08 06:54:34
    Программа кодирования : Lavf51.12.1
    Video
    Идентификатор : 1
    Формат : AVC
    Формат/Информация : Advanced Video Codec
    Профиль формата : Baseline@L3.1
    Параметр CABAC формата : No
    Параметр ReFrames формата : 1 frame
    Параметр GOP формата : M=1, N=12
    Идентификатор кодека : avc1
    Идентификатор кодека/Информация : Advanced Video Coding
    Продолжительность : 44mn 14s
    Вид битрейта : Variable
    Битрейт : 3 134 Kbps
    Максимальный битрейт : 4 500 Kbps
    Ширина : 1 280 pixels
    Высота : 720 pixels
    Соотношение сторон : 16:9
    Режим частоты кадров : Constant
    Частота кадров : 25.000 fps
    Частота кадров в оригинале : 24.000 fps
    Цветовое пространство : YUV
    Субдискретизация насыщенности : 4:2:0
    Битовая глубина : 8 bits
    Тип развёртки : Progressive
    Бит/(Пиксели*Кадры) : 0.136
    Размер потока : 992 MiB (91%)
    Дата кодирования : UTC 2013-10-08 06:54:34
    Дата пометки : UTC 2013-10-08 06:54:34
    Audio
    Идентификатор : 2
    Формат : AAC
    Формат/Информация : Advanced Audio Codec
    Профиль формата : LC
    Идентификатор кодека : 40
    Продолжительность : 44mn 14s
    Вид битрейта : Variable
    Битрейт : 311 Kbps
    Каналы : 2 channels
    Channel(s)_Original : 6 channels
    Расположение каналов : Front: L C R, Side: L R, LFE
    Частота : 44.1 KHz
    Метод сжатия : Lossy
    Размер потока : 98.6 MiB (9%)
    Дата кодирования : UTC 2013-10-08 06:54:34
    Дата пометки : UTC 2013-10-08 06:54:34
    --

    MediaInfo Карпов. Сезон Третий

    General
    Полное имя : F:\К И Н О\Н А Ш Е К И Н О\КАРПОВ\KARPOV_S01_-_S03_2012_-_2014_RUS[NTV_Russia]_x264_Nikolai.Baranov_DVB-AVC\S03\1\Karpov_S03E01_2014_RUS[NTV_Russia]_x264_Nikolai.Baranov_DVB-AVC.mp4
    Формат : MPEG-4
    Профиль формата : Base Media
    Идентификатор кодека : isom
    Размер файла : 1.20 GiB
    Продолжительность : 42mn 48s
    Режим общего битрейта : Variable
    Общий поток : 3 998 Kbps
    Дата кодирования : UTC 2014-10-06 20:31:48
    Дата пометки : UTC 2014-10-06 20:31:48
    Программа кодирования : Lavf51.12.1
    Video
    Идентификатор : 1
    Формат : AVC
    Формат/Информация : Advanced Video Codec
    Профиль формата : Baseline@L3.1
    Параметр CABAC формата : No
    Параметр ReFrames формата : 1 frame
    Параметр GOP формата : M=1, N=12
    Идентификатор кодека : avc1
    Идентификатор кодека/Информация : Advanced Video Coding
    Продолжительность : 42mn 48s
    Вид битрейта : Variable
    Битрейт : 3 662 Kbps
    Максимальный битрейт : 5 250 Kbps
    Ширина : 1 280 pixels
    Высота : 720 pixels
    Соотношение сторон : 16:9
    Режим частоты кадров : Constant
    Частота кадров : 25.000 fps
    Частота кадров в оригинале : 24.000 fps
    Цветовое пространство : YUV
    Субдискретизация насыщенности : 4:2:0
    Битовая глубина : 8 bits
    Тип развёртки : Progressive
    Бит/(Пиксели*Кадры) : 0.159
    Размер потока : 1.10 GiB (92%)
    Дата кодирования : UTC 2014-10-06 20:31:48
    Дата пометки : UTC 2014-10-06 20:31:48
    Audio
    Идентификатор : 2
    Формат : AAC
    Формат/Информация : Advanced Audio Codec
    Профиль формата : LC
    Идентификатор кодека : 40
    Продолжительность : 42mn 48s
    Вид битрейта : Variable
    Битрейт : 331 Kbps
    Каналы : 2 channels
    Channel(s)_Original : 6 channels
    Расположение каналов : Front: L C R, Side: L R, LFE
    Частота : 48.0 KHz
    Метод сжатия : Lossy
    Размер потока : 101 MiB (8%)
    Дата кодирования : UTC 2014-10-06 20:31:48
    Дата пометки : UTC 2014-10-06 20:31:48
    --

    СкриншотыКарпов. Сезон Первый

    --

    Скриншоты Карпов. Сезон Второй

    --

    Скриншоты Карпов. Сезон Третий

    --Карпов. Сезон Первый --Карпов. Сезон Второй --Карпов. Сезон Третий --

    Как закачать отдельный файл

    1. Открыть торрент
    2. Снять галки с тех файлов торрента, которые мы не хотим закачивать. Оставляем только на нужных нам файлах (файле).
    3. Нажать О.К.
    В клиенте utorrent
    Инструкция
    1) Открыть торрент

    2) Снять галки с тех файлов торрента, которые мы не хотим закачивать:
    * либо вручную, снимая с каждого файла галку( скрин №1)
    * либо, нажав кнопку "Снять метки (Select None)", сняв сразу со всех файлов(скрин №2)
    №1

    №2

    Оставляем только на нужных нам файлах (файле).

    3)Нажать О.К
    ------Релиз от: Nikolai.Baranov --
    Скачать .torrent

    Скачать торрент-файл бесплатно и на максимальной скорости!

    Как скачивать? · Что такое торрент? · Рейтинг и ограничения

    !ВНИМАНИЕ!
    Сайт не распространяет и не хранит электронные версии произведений, а занимается лишь лишь предоставлением доступа к создаваемому пользователями каталогу ссылок на торрент-файлы, которые содержат только списки хеш-сумм, убедительная просьба с жалобами обращаться напрямую к пользователю. Файлы для обмена на трекере предоставлены пользователями сайта, и администрация не несёт ответственности за их содержание. Просьба не заливать файлы, защищенные авторскими правами, а также файлы нелегального содержания!


    _________________

    Легко быть оптимистом, когда судьба не валит с ног тяжелыми ударами, а лишь иногда легонько шлепает по заднице.
    [Профиль] [ЛС]
    Показать сообщения:    
    Ответить на тему

    Текущее время: Сегодня, в 08:21

    Часовой пояс: GMT + 2



    Вы не можете начинать темы
    Вы не можете отвечать на сообщения
    Вы не можете редактировать свои сообщения
    Вы не можете удалять свои сообщения
    Вы не можете голосовать в опросах
    Вы не можете прикреплять файлы к сообщениям
    Вы не можете скачивать файлы