BitTorrentTracker PerecTracker.org
BitTorrentTracker PerecTracker.org
    
Регистрация  ·  Вход
 
 · 
Забыли пароль?

  • Кухня (Сезон 1-4, Серии 1- 73 из 80+Бонус) (Дмитрий Дьяченко) [2012-2014, Комедия, WEB-DLRip-AVC 720p]

    Ответить на тему
     
    Автор Сообщение

    Враг Нароода

    Создавать темы 31-Окт-2014 10:20

           

    [Цитировать]

    ----Кухня Сезон 1-4, Серии 1-73 из 80+Бонус----Год выпуска: 2012-2014
    Выпущено: Россия, YBW Group, СТС
    Жанр: Комедия
    Продолжительность: 00:24:00
    Сезон: 1-4
    Серии: 1-73
    Количество серий в сезоне: 80
    Перевод :Не требуется
    Субтитры: Нет----Режиссер: Дмитрий Дьяченко--В ролях: Дмитрий Назаров, Марк Богатырев, Дмитрий Нагиев, Юлия Такшина, Елена Подкаминская, Марина Могилевская, Сергей Лавыгин, Никита Тарасов, Виктор Хориняк, Сергей Епишев, Ольга Кузьмина, Екатерина Кузнецова (IV), Михаил Тарабукин, Виктория Лукина, Елена Чернявская, Виталий Щанников, Сергей Беляев, Роман Индык, Евгения Храповицкая, Серафима Низовская--«Во все времена еда была рядом с людьми. Она искушает, вдохновляет, восхищает, отвращает. Но человек не может без еды, а значит тот, кто создает еду, может управлять миром…». Так думал Максим Лавров, когда шел осуществлять свою мечту — устраиваться поваром в один из самых дорогих ресторанов столицы.
    Мечта сбылась, вот только на деле все вышло не так вкусно. Шеф-повар ресторана Виктор Баринов — настоящая звезда гастрономического бомонда, знающая как угодить взыскательной публике. Оборотная сторона этого идеального образа — злоупотребление алкоголем, страсть к азартным играм и невыносимый характер. В гневе Баринов страшен, в загуле — неукротим.
    Арт-директор Виктория Гончарова — настоящая снежная королева, карьеристка с ледяным сердцем, однако именно с ней Макс проводит ночь до того, как пойти на новую работу. А вся команда поваров только и ждет промашки новичка, чтобы от души посмеяться.
    Главный герой Максим Лавров — выпускник Воронежского кулинарного колледжа — одержим мечтой: стать знаменитым шеф-поваром. Для этого он отправляется в Москву, чтобы устроиться в известнейший и популярный ресторан «Клод Моне», хозяином которого является «звезда» шоу-бизнеса. Шеф-повар ресторана «Клод Моне» — знаменитый на всю Москву Виктор Баринов. Властный, харизматичный, самодур, пьяница и игрок, но повар от бога. Арт-директор ресторана — Виктория Гончарова. Ей 30, она хитра, образованна, красива. Вся её жизнь — карьера, в ней нет места личной жизни. Сотрудники ресторана работают в условиях вечного конфликта Шеф-повара и Арт-директора. Один ставит во главу угла прекрасно приготовленную на его кухне еду. Другая — сервис и атмосферу зала ресторана, которую создает она. Именно в это заведение и попадает Максим. Парень знает себе цену и всеми способами пытается завоевать доверие шеф-повара и остаться на кухне. Однако отсутствие опыта и чрезмерное желание самоутвердиться ввергают Максима в череду коллизий, которую ему придётся преодолеть, чтобы стать частью этого мира.--Качество :WEB-DLRip-AVC 720p
    Формат: MPEG-4
    Видео кодек: H264
    Видео: 3151Кбит/сек,1280х720(16.9),в 25.000кадр/сек,AVC(Baseline@L5.0)(1Ref Frames)
    Аудио кодек: AAC
    Аудио Russian :333Кбит/сек,44.1КГц,2канала,AAC,(LC)--

    Доп. информация:

    Звуковая дорожка сделана путем наложения чистого голоса озвучивателей на центральный канал оригинальной дорожки. Качество идентично звуковой дорожке.
    --

    MediaInfo 1СЕЗОНА

    General
    Полное имя : F:\К И Н О\Н А Ш Е К И Н О\KUHNJA_S01_-_S04_RUS[STS_Russia]_x264_Nikolai.Baranov_WEB-DLRip-AVC_(720p)\S01\KUHNJA_2012_S01E01_RUS[STS_Russia]_DD5.1_x264_Nikolai.Baranov_WEB-DLRip.AVC_(720p).mp4
    Формат : MPEG-4
    Профиль формата : Base Media
    Идентификатор кодека : isom
    Размер файла : 634 MiB
    Продолжительность : 25mn 23s
    Режим общего битрейта : Variable
    Общий поток : 3 488 Kbps
    Дата кодирования : UTC 2013-03-28 12:17:43
    Дата пометки : UTC 2013-03-28 12:17:43
    Программа кодирования : Lavf51.12.1
    Video
    Идентификатор : 1
    Формат : AVC
    Формат/Информация : Advanced Video Codec
    Профиль формата : Baseline@L5.0
    Параметр CABAC формата : No
    Параметр ReFrames формата : 1 frame
    Параметр GOP формата : M=1, N=12
    Идентификатор кодека : avc1
    Идентификатор кодека/Информация : Advanced Video Coding
    Продолжительность : 25mn 23s
    Вид битрейта : Variable
    Битрейт : 3 151 Kbps
    Максимальный битрейт : 4 500 Kbps
    Ширина : 1 280 pixels
    Высота : 720 pixels
    Соотношение сторон : 16:9
    Режим частоты кадров : Constant
    Частота кадров : 25.000 fps
    Частота кадров в оригинале : 24.000 fps
    Цветовое пространство : YUV
    Субдискретизация насыщенности : 4:2:0
    Битовая глубина : 8 bits
    Тип развёртки : Progressive
    Бит/(Пиксели*Кадры) : 0.137
    Размер потока : 572 MiB (90%)
    Дата кодирования : UTC 2013-03-28 12:17:43
    Дата пометки : UTC 2013-03-28 12:17:43
    Audio
    Идентификатор : 2
    Формат : AAC
    Формат/Информация : Advanced Audio Codec
    Профиль формата : LC
    Идентификатор кодека : 40
    Продолжительность : 25mn 23s
    Вид битрейта : Variable
    Битрейт : 333 Kbps
    Каналы : 2 channels
    Channel(s)_Original : 6 channels
    Расположение каналов : Front: L C R, Side: L R, LFE
    Частота : 44.1 KHz
    Метод сжатия : Lossy
    Размер потока : 60.5 MiB (10%)
    Дата кодирования : UTC 2013-03-28 12:17:43
    Дата пометки : UTC 2013-03-28 12:17:43
    --

    MediaInfo 2СЕЗОНА

    General
    Полное имя : F:\К И Н О\Н А Ш Е К И Н О\KUHNJA_S01_-_S04_RUS[STS_Russia]_x264_Nikolai.Baranov_WEB-DLRip-AVC_(720p)\S02\KUHNJA_2013_S02E01_RUS[STS_Russia]_DD5.1_x264_Nikolai.Baranov_WEB-DLRip.AVC_(720p).mp4
    Формат : MPEG-4
    Профиль формата : Base Media
    Идентификатор кодека : isom
    Размер файла : 613 MiB
    Продолжительность : 23mn 45s
    Режим общего битрейта : Variable
    Общий поток : 3 610 Kbps
    Дата кодирования : UTC 2013-03-25 21:31:32
    Дата пометки : UTC 2013-03-25 21:31:32
    Программа кодирования : Lavf51.12.1
    Video
    Идентификатор : 1
    Формат : AVC
    Формат/Информация : Advanced Video Codec
    Профиль формата : Baseline@L5.0
    Параметр CABAC формата : No
    Параметр ReFrames формата : 1 frame
    Параметр GOP формата : M=1, N=12
    Идентификатор кодека : avc1
    Идентификатор кодека/Информация : Advanced Video Coding
    Продолжительность : 23mn 45s
    Вид битрейта : Variable
    Битрейт : 3 150 Kbps
    Максимальный битрейт : 4 500 Kbps
    Ширина : 1 280 pixels
    Высота : 720 pixels
    Соотношение сторон : 16:9
    Режим частоты кадров : Constant
    Частота кадров : 25.000 fps
    Частота кадров в оригинале : 24.000 fps
    Цветовое пространство : YUV
    Субдискретизация насыщенности : 4:2:0
    Битовая глубина : 8 bits
    Тип развёртки : Progressive
    Бит/(Пиксели*Кадры) : 0.137
    Размер потока : 535 MiB (87%)
    Дата кодирования : UTC 2013-03-25 21:31:32
    Дата пометки : UTC 2013-03-25 21:31:32
    Audio
    Идентификатор : 2
    Формат : AAC
    Формат/Информация : Advanced Audio Codec
    Профиль формата : LC
    Идентификатор кодека : 40
    Продолжительность : 23mn 45s
    Вид битрейта : Variable
    Битрейт : 456 Kbps
    Каналы : 2 channels
    Channel(s)_Original : 6 channels
    Расположение каналов : Front: L C R, Side: L R, LFE
    Частота : 44.1 KHz
    Метод сжатия : Lossy
    Размер потока : 77.5 MiB (13%)
    Дата кодирования : UTC 2013-03-25 21:31:32
    Дата пометки : UTC 2013-03-25 21:31:32
    --

    MediaInfo 3СЕЗОНА

    General
    Полное имя : F:\К И Н О\Н А Ш Е К И Н О\KUHNJA_S01_-_S04_RUS[STS_Russia]_x264_Nikolai.Baranov_WEB-DLRip-AVC_(720p)\S03\KUHNJA_2014_S03E01_RUS[STS_Russia]_DD5.1_x264_Nikolai.Baranov_WEB-DLRip.AVC_(720p).mp4
    Формат : MPEG-4
    Профиль формата : Base Media
    Идентификатор кодека : isom
    Размер файла : 641 MiB
    Продолжительность : 26mn 19s
    Режим общего битрейта : Variable
    Общий поток : 3 407 Kbps
    Дата кодирования : UTC 2014-10-13 14:50:16
    Дата пометки : UTC 2014-10-13 14:50:16
    Программа кодирования : Lavf51.12.1
    Video
    Идентификатор : 1
    Формат : AVC
    Формат/Информация : Advanced Video Codec
    Профиль формата : Baseline@L3.1
    Параметр CABAC формата : No
    Параметр ReFrames формата : 1 frame
    Параметр GOP формата : M=1, N=12
    Идентификатор кодека : avc1
    Идентификатор кодека/Информация : Advanced Video Coding
    Продолжительность : 26mn 17s
    Вид битрейта : Variable
    Битрейт : 3 150 Kbps
    Максимальный битрейт : 4 500 Kbps
    Ширина : 1 280 pixels
    Высота : 720 pixels
    Соотношение сторон : 16:9
    Режим частоты кадров : Constant
    Частота кадров : 25.000 fps
    Частота кадров в оригинале : 24.000 fps
    Цветовое пространство : YUV
    Субдискретизация насыщенности : 4:2:0
    Битовая глубина : 8 bits
    Тип развёртки : Progressive
    Бит/(Пиксели*Кадры) : 0.137
    Размер потока : 592 MiB (92%)
    Язык : English
    Дата кодирования : UTC 2014-10-13 14:50:16
    Дата пометки : UTC 2014-10-13 14:50:16
    Audio
    Идентификатор : 2
    Формат : AAC
    Формат/Информация : Advanced Audio Codec
    Профиль формата : LC
    Идентификатор кодека : 40
    Продолжительность : 26mn 19s
    Вид битрейта : Variable
    Битрейт : 256 Kbps
    Каналы : 2 channels
    Channel(s)_Original : 6 channels
    Расположение каналов : Front: L C R, Side: L R, LFE
    Частота : 48.0 KHz
    Метод сжатия : Lossy
    Размер потока : 48.2 MiB (8%)
    Дата кодирования : UTC 2014-10-13 14:50:16
    Дата пометки : UTC 2014-10-13 14:50:16
    --

    MediaInfo 4СЕЗОНА

    General
    Полное имя : F:\К И Н О\Н А Ш Е К И Н О\KUHNJA_S01_-_S04_RUS[STS_Russia]_x264_Nikolai.Baranov_WEB-DLRip-AVC_(720p)\S04\KUHNJA_2014_S04E01_RUS[STS_Russia]_x264_Nikolai.Baranov_WEB-DLRip.AVC_(720p).mp4
    Формат : MPEG-4
    Профиль формата : Base Media
    Идентификатор кодека : isom
    Размер файла : 659 MiB
    Продолжительность : 26mn 36s
    Режим общего битрейта : Variable
    Общий поток : 3 461 Kbps
    Дата кодирования : UTC 2014-10-13 19:38:17
    Дата пометки : UTC 2014-10-13 19:38:17
    Программа кодирования : Lavf51.12.1
    Video
    Идентификатор : 1
    Формат : AVC
    Формат/Информация : Advanced Video Codec
    Профиль формата : Baseline@L3.1
    Параметр CABAC формата : No
    Параметр ReFrames формата : 1 frame
    Параметр GOP формата : M=1, N=12
    Идентификатор кодека : avc1
    Идентификатор кодека/Информация : Advanced Video Coding
    Продолжительность : 26mn 36s
    Вид битрейта : Variable
    Битрейт : 3 144 Kbps
    Максимальный битрейт : 4 500 Kbps
    Ширина : 1 280 pixels
    Высота : 720 pixels
    Соотношение сторон : 16:9
    Режим частоты кадров : Constant
    Частота кадров : 25.000 fps
    Частота кадров в оригинале : 24.000 fps
    Цветовое пространство : YUV
    Субдискретизация насыщенности : 4:2:0
    Битовая глубина : 8 bits
    Тип развёртки : Progressive
    Бит/(Пиксели*Кадры) : 0.136
    Размер потока : 598 MiB (91%)
    Дата кодирования : UTC 2014-10-13 19:38:17
    Дата пометки : UTC 2014-10-13 19:38:17
    Audio
    Идентификатор : 2
    Формат : AAC
    Формат/Информация : Advanced Audio Codec
    Профиль формата : LC
    Идентификатор кодека : 40
    Продолжительность : 26mn 36s
    Вид битрейта : Variable
    Битрейт : 312 Kbps
    Каналы : 2 channels
    Channel(s)_Original : 6 channels
    Расположение каналов : Front: L C R, Side: L R, LFE
    Частота : 48.0 KHz
    Метод сжатия : Lossy
    Размер потока : 59.4 MiB (9%)
    Язык : English
    Дата кодирования : UTC 2014-10-13 19:38:17
    Дата пометки : UTC 2014-10-13 19:38:17
    --

    Скриншоты 1СЕЗОНА

    --

    Скриншоты 2СЕЗОНА

    --

    Скриншоты 3СЕЗОНА

    --

    Скриншоты 4СЕЗОНА

    --1СЕЗОНА--2СЕЗОНА-- 3СЕЗОНА -- 4СЕЗОНА --

    БОНУС

    --Кухня в Парижe----Год выпуска: 2014
    Выпущено:: РОССИЯ , YBW Group, Yellow, Black & White, СТС
    Жанр: Комедия
    Продолжительность: 01:46:42
    Перевод:НЕ ТРЕБУЕТСЯ , Лицензия
    Субтитры : отсутствуют----Режиссер: Дмитрий Дьяченко (II)--В ролях: Дмитрий Назаров, Дмитрий Нагиев, Елена Подкаминская, Марина Могилевская, Марк Богатырёв, Виктор Хориняк, Ольга Кузьмина, Екатерина Кузнецова, Валерия Федорович, Жанныл Асанбекова, Елена Чернявская, Алексей Колган, Сергей Лавыгин, Сергей Епишев, Михаил Тарабукин, Никита Тарасов, Юлия Такшина, Виктория Лукина, Виталий Щанников, Сергей Беляев, Роман Индык, Евгения Храповицкая, Ольга Новосад, Серафима Низовская, Александр Карпиловский, Горбань, Ирина Бразговка-- Модный столичный ресторан «Клод Моне» процветает. Именно здесь, в родном заведении Вика и Максим хотят отпраздновать долгожданную свадьбу. Но планы меняются, когда в ресторане назначают Президентов России и ! Команда ресторана терпит фиаско и вынуждена отправиться в «изгнание» — в Париж. Там Шеф с Максом сталкиваются с опасными конкурентами: Шеф — с ближайшим родственником, а Максим — с красавцем Николя, который кружит Вике голову не хуже искристого шампанского! И это еще не все вызовы, которые бросает им «Город любви», ведь надо постараться спасти репутацию, накормить Президентов и преодолеть миллион препятствий …--Качество : BDRip-AVC 1080p
    Формат: MPEG-4
    Видео кодек: H264
    Видео: 8329ит/сек,1920х1080(16.9),в 25.000кадр/сек,AVC(Baseline@L4.0)(1Ref Frames)
    Аудио кодек: AAC
    Аудио Russian :496Кбит/сек,48.0КГц,2канала,AAC,(Version4)(LC)--

    MediaInfo

    General
    Полное имя : F:\К И Н О\Н А Ш Е К И Н О\KUHNJA_V_PARIZHE_2014_RUS_x264_Nikolai.Baranov_ВDRip-AVC_(1080p)\KUHNJA_V_PARIZHE_2014_RUS_x264_Nikolai.Baranov_ВDRip-AVC_(1080p).mp4
    Формат : MPEG-4
    Профиль формата : Base Media
    Идентификатор кодека : isom
    Размер файла : 6.58 GiB
    Продолжительность : 1h 46mn
    Режим общего битрейта : Variable
    Общий поток : 8 832 Kbps
    Название фильма : ReJIiZ MediaClub by BenderBEST
    Дата кодирования : UTC 2014-07-18 09:17:34
    Дата пометки : UTC 2014-07-18 09:17:34
    Программа кодирования : Lavf51.12.1
    Video
    Идентификатор : 1
    Формат : AVC
    Формат/Информация : Advanced Video Codec
    Профиль формата : Baseline@L4.0
    Параметр CABAC формата : No
    Параметр ReFrames формата : 1 frame
    Параметр GOP формата : M=1, N=12
    Идентификатор кодека : avc1
    Идентификатор кодека/Информация : Advanced Video Coding
    Продолжительность : 1h 46mn
    Вид битрейта : Variable
    Битрейт : 8 329 Kbps
    Максимальный битрейт : 12.0 Mbps
    Ширина : 1 920 pixels
    Высота : 1 080 pixels
    Соотношение сторон : 16:9
    Режим частоты кадров : Constant
    Частота кадров : 25.000 fps
    Частота кадров в оригинале : 24.000 fps
    Цветовое пространство : YUV
    Субдискретизация насыщенности : 4:2:0
    Битовая глубина : 8 bits
    Тип развёртки : Progressive
    Бит/(Пиксели*Кадры) : 0.161
    Размер потока : 6.21 GiB (94%)
    Язык : Russian
    Дата кодирования : UTC 2014-07-18 09:17:34
    Дата пометки : UTC 2014-07-18 09:17:34
    Audio
    Идентификатор : 2
    Формат : AAC
    Формат/Информация : Advanced Audio Codec
    Профиль формата : LC
    Идентификатор кодека : 40
    Продолжительность : 1h 46mn
    Вид битрейта : Variable
    Битрейт : 496 Kbps
    Каналы : 2 channels
    Channel(s)_Original : 6 channels
    Расположение каналов : Front: L C R, Side: L R, LFE
    Частота : 48.0 KHz
    Метод сжатия : Lossy
    Размер потока : 378 MiB (6%)
    Язык : Russian
    Дата кодирования : UTC 2014-07-18 09:17:34
    Дата пометки : UTC 2014-07-18 09:17:34
    --

    Скриншоты

    ----
    ----Внимание! Раздача пополняется по мере выхода новых серий!--

    Внимание! Раздача ведётся путём добавления новых серий!

    Раздача ведётся путём добавления новых серий; при каждом добавлении создётся новый торрент.
    Чтобы начать докачку новой серии, пользователям необходимо сделать следующее:
    1. остановить скачивание,
    2. удалить старый торрент у себя из клиента (старые серии удалять не надо),
    3. скачать новый торрент и запустить его у себя в клиенте вместо старого, при этом указать клиенту путь в старую папку, куда и должно происходить скачивание новых серий.
    Ваш клиент при этом должен произвести хеширование (проверку) старой папки (если не производит сам - помогите ему сделать это), и будет докачивать только те серии которых у вас ещё нет. Старые серии при этом не удаляются, а продолжают раздаваться!
    Eсли вы уже удалили старые серии, то предотвратить повторную закачку старых серий можно, отжав галочку в соответсвующих местах при запуске нового торрента. По возможности, желательно не удалять старые серии как можно дольше, чтобы релизёр не столько продолжал раздавать старые серии, а смог сконцентрироваться на новых.
    Совет для тех, кто не хочет ждать перехеширования:
    Создайте ещё одну папку рядом с папкой сериала (рядом, а не в ней!!!). Каждую новую серию после удачной загрузки копируйте в новую папку так чтобы ваша основная папка всегда была пуста. Когда ваш новый торрент предложит вам закачать все файлы, выберете только последнюю. Для сидирования же укажите адрес новой папки.
    Как закачать отдельный файл из торрента или докачать ранее пропущенные файлы торрента!

    Как закачать отдельный файл

    1. Открыть торрент
    2. Снять галки с тех файлов торрента, которые мы не хотим закачивать. Оставляем только на нужных нам файлах (файле).
    3. Нажать О.К.
    В клиенте utorrent
    Инструкция
    1) Открыть торрент

    2) Снять галки с тех файлов торрента, которые мы не хотим закачивать:
    * либо вручную, снимая с каждого файла галку( скрин №1)
    * либо, нажав кнопку "Снять метки (Select None)", сняв сразу со всех файлов(скрин №2)
    №1

    №2

    Оставляем только на нужных нам файлах (файле).

    3)Нажать О.К
    ------Релиз от: Nikolai.Baranov --
    Скачать .torrent

    Скачать торрент-файл бесплатно и на максимальной скорости!

    Как скачивать? · Что такое торрент? · Рейтинг и ограничения

    !ВНИМАНИЕ!
    Сайт не распространяет и не хранит электронные версии произведений, а занимается лишь лишь предоставлением доступа к создаваемому пользователями каталогу ссылок на торрент-файлы, которые содержат только списки хеш-сумм, убедительная просьба с жалобами обращаться напрямую к пользователю. Файлы для обмена на трекере предоставлены пользователями сайта, и администрация не несёт ответственности за их содержание. Просьба не заливать файлы, защищенные авторскими правами, а также файлы нелегального содержания!


    _________________

    Легко быть оптимистом, когда судьба не валит с ног тяжелыми ударами, а лишь иногда легонько шлепает по заднице.
    [Профиль] [ЛС]
    Показать сообщения:    
    Ответить на тему

    Текущее время: Сегодня, в 08:15

    Часовой пояс: GMT + 2



    Вы не можете начинать темы
    Вы не можете отвечать на сообщения
    Вы не можете редактировать свои сообщения
    Вы не можете удалять свои сообщения
    Вы не можете голосовать в опросах
    Вы не можете прикреплять файлы к сообщениям
    Вы не можете скачивать файлы