Register  ·  Log in
Forgot password?

  • Привязанные к дому / Housebound (Джерард Джонстоун / Gerard Johnstone) [2014, Новая Зеландия, Триллер, ужасы, комедия, HDRip] VO (datynet)

    Reply to topic
    Author Message


    Post 29-Oct-2014 16:26



    Привязанные к дому / Housebound
    Страна: Новая Зеландия
    Жанр: Триллер, ужасы, комедия
    Год выпуска: 2014
    Продолжительность: 01:46:46
    Перевод: Одноголосый закадровый datynet по тексту Janetta
    Cубтитры: нет
    Режиссер: Джерард Джонстоун / Gerard Johnstone
    В ролях: Моргана О Рейли, Рима Те Вьята, Глен-Поль Waru, Росс Харпер, Камерон Родс, Райан Лампп, Мик Иннес, Брюс Хопкинс, Уоллес Чепмен, Миллен Бейрд
    Описание: Кайли Бакнелл вынуждена вернуться в фамильный особняк после того, как суд приговорил ее к заключению под домашний арест. Ее наказание за неудачную попытку ограбить банкомат осложняется еще и тем, что Кайли вынуждена жить со своей безумной мамой Мириам, которая убеждена, что особняк кишит приведениями…

    Качество видео: HDRip
    Формат видео: AVI
    Видео: 720x304 (2.37:1), 25 fps, XviD MPEG-4 ~1594 kbps avg, 0.29 bit/pixel
    Аудио: 44.100 kHz, MPEG Layer 3, 2 ch, ~192.00 kbps avg


    Complete name : E:\Films\New\Privyazannye.k.domu.2014.avi
    Format : AVI
    Format/Info : Audio Video Interleave
    File size : 1.34 GiB
    Duration : 1h 46mn
    Overall bit rate : 1 796 Kbps
    Writing library : VirtualDub build 34753/release
    ID : 0
    Format : MPEG-4 Visual
    Format profile : Advanced Simple@L5
    Format settings, BVOP : 2
    Format settings, QPel : No
    Format settings, GMC : No warppoints
    Format settings, Matrix : Default (H.263)
    Muxing mode : Packed bitstream
    Codec ID : XVID
    Codec ID/Hint : XviD
    Duration : 1h 46mn
    Bit rate : 1 594 Kbps
    Width : 720 pixels
    Height : 304 pixels
    Display aspect ratio : 2.35:1
    Frame rate : 25.000 fps
    Color space : YUV
    Chroma subsampling : 4:2:0
    Bit depth : 8 bits
    Scan type : Progressive
    Compression mode : Lossy
    Bits/(Pixel*Frame) : 0.291
    Stream size : 1.19 GiB (89%)
    Writing library : XviD 64
    ID : 1
    Format : MPEG Audio
    Format version : Version 1
    Format profile : Layer 3
    Codec ID : 55
    Codec ID/Hint : MP3
    Duration : 1h 46mn
    Bit rate mode : Constant
    Bit rate : 192 Kbps
    Channel(s) : 2 channels
    Sampling rate : 44.1 KHz
    Compression mode : Lossy
    Stream size : 147 MiB (11%)
    Alignment : Split accross interleaves
    Interleave, duration : 40 ms (1.00 video frame)
    Interleave, preload duration : 500 ms


    Download .torrent

    Download free and at maximum speed!

    How to Download? · What is a torrent? · Ratings and Limitations

    The site does not extend and does not store electronic(digital) versions of products, and only gives access to a reference catalogue created by users on torrent-files which contain only lists of the hash-sums, the earnest entreaty, with complaints(abuse) to access directly to the user. Files for an exchange on tracker are given by users of a site, and the administration does not bear the responsibility for their maintenance. The request to not fill in the files protected by copyrights, and also files of the illegal maintenance!

    [Profile] [PM]
    Display posts from previous:    
    Reply to topic

    The time now is: Today 01:21

    All times are GMT + 3 Hours

    You cannot post new topics in this forum
    You cannot reply to topics in this forum
    You cannot edit your posts in this forum
    You cannot delete your posts in this forum
    You cannot vote in polls in this forum
    You cannot attach files in this forum
    You cannot download files in this forum