BitTorrentTracker PerecTracker.org
BitTorrentTracker PerecTracker.org
    
Регистрация  ·  Вход
 
 · 
Забыли пароль?

  • Прогулка среди могил / A Wаlk Among the Tоmbstones (Скотт Фрэнк / Scott Frank) [2014, США, Боевик, Триллер, Криминал, WEBRip] Rus + Original (Eng)

    Ответить на тему
     
    Автор Сообщение

    Columb

    Создавать темы 28-Окт-2014 20:14

           

    [Цитировать]

    Прогулка среди могил / A Wаlk Among the Tоmbstones
    Год выпуска: 2014
    Страна: США
    Жанр: Боевик, Триллер, Криминал
    Продолжительность: 01:53:47
    Перевод: Любительский (двухголосый закадровый)
    Cубтитры: Вшитые не отключаемые (китайские)
    Режиссёр: Скотт Фрэнк
    В ролях: Лиам Нисон, Дэн Стивенс, Дэвид Харбор, Бойд Холбрук, Оулавюр Дарри Оулавссон, Морис Комт, Патрик МакДэйд, Лучиано Акуна мл., Ганс Марреро и др.
    Описание:
    Нью-Йорк охватывает волна странных и страшных убийств. Муж одной из жертв, наркобарон, нанимает бывшего полицейского, чтобы тот добрался до убийцы жены. Частный детектив Скаддер видит то, чего не замечает полиция, и проникает туда, куда копы боятся даже сунуть нос. Распутывая дьявольские преступления, он понимает, что люди боятся совсем не того.
    Сэмпл
    Качество: WEBRip
    Формат: AVI
    Видео кодек: XviD
    Аудио кодек: MP3
    Video: Xvid 720x304 ~1580 Kbps 29.97 fps 0.241 bit/pixel
    Audio1: MP3 48000Hz 2ch 128kbps [Rus]
    Audio2: MP3 48000Hz 2ch 128kbps [Eng]

    Скриншоты#

    MediaInfo#

    E:\Video\Com\awalk\A.Walk.Among.The.Tombstones.2014.webrip.avi
    General
    Complete name : E:\Video\Com\awalk\A.Walk.Among.The.Tombstones.2014.webrip.avi
    Format : AVI
    Format/Info : Audio Video Interleave
    File size : 1.47 GiB
    Duration : 1h 53mn
    Overall bit rate : 1 853 Kbps
    Writing application : VirtualDubMod 1.5.10.3 (build 2550/release)
    Writing library : VirtualDubMod build 2550/release
    Video #0
    ID : 0
    Format : MPEG-4 Visual
    Format profile : Advanced Simple@L5
    Format settings, BVOP : 2
    Format settings, QPel : No
    Format settings, GMC : No warppoints
    Format settings, Matrix : Default (MPEG)
    Codec ID : XVID
    Codec ID/Hint : XviD
    Duration : 1h 53mn
    Bit rate : 1 580 Kbps
    Width : 720 pixels
    Height : 304 pixels
    Display aspect ratio : 2.35:1
    Frame rate : 29.970 fps
    Color space : YUV
    Chroma subsampling : 4:2:0
    Bit depth : 8 bits
    Scan type : Progressive
    Compression mode : Lossy
    Bits/(Pixel*Frame) : 0.241
    Stream size : 1.26 GiB (85%)
    Writing library : XviD 1.2.1 (UTC 2008-12-04)
    Audio #1
    ID : 1
    Format : MPEG Audio
    Format version : Version 1
    Format profile : Layer 3
    Mode : Joint stereo
    Codec ID : 55
    Codec ID/Hint : MP3
    Duration : 1h 53mn
    Bit rate mode : Constant
    Bit rate : 128 Kbps
    Channel(s) : 2 channels
    Sampling rate : 48.0 KHz
    Compression mode : Lossy
    Stream size : 104 MiB (7%)
    Alignment : Aligned on interleaves
    Interleave, duration : 33 ms (1.00 video frame)
    Interleave, preload duration : 504 ms
    Title : Rus
    Audio #2
    ID : 2
    Format : MPEG Audio
    Format version : Version 1
    Format profile : Layer 3
    Mode : Joint stereo
    Codec ID : 55
    Codec ID/Hint : MP3
    Duration : 1h 53mn
    Bit rate mode : Constant
    Bit rate : 128 Kbps
    Channel(s) : 2 channels
    Sampling rate : 48.0 KHz
    Compression mode : Lossy
    Stream size : 104 MiB (7%)
    Alignment : Aligned on interleaves
    Interleave, duration : 33 ms (1.00 video frame)
    Interleave, preload duration : 504 ms
    Title : Eng
    Скачать .torrent

    Скачать торрент-файл бесплатно и на максимальной скорости!

    Как скачивать? · Что такое торрент? · Рейтинг и ограничения

    !ВНИМАНИЕ!
    Сайт не распространяет и не хранит электронные версии произведений, а занимается лишь лишь предоставлением доступа к создаваемому пользователями каталогу ссылок на торрент-файлы, которые содержат только списки хеш-сумм, убедительная просьба с жалобами обращаться напрямую к пользователю. Файлы для обмена на трекере предоставлены пользователями сайта, и администрация не несёт ответственности за их содержание. Просьба не заливать файлы, защищенные авторскими правами, а также файлы нелегального содержания!

    [Профиль] [ЛС]
    Показать сообщения:    
    Ответить на тему

    Текущее время: Сегодня, в 10:56

    Часовой пояс: GMT + 2



    Вы не можете начинать темы
    Вы не можете отвечать на сообщения
    Вы не можете редактировать свои сообщения
    Вы не можете удалять свои сообщения
    Вы не можете голосовать в опросах
    Вы не можете прикреплять файлы к сообщениям
    Вы не можете скачивать файлы