BitTorrentTracker PerecTracker.org
BitTorrentTracker PerecTracker.org
    
Регистрация  ·  Вход
 
 · 
Забыли пароль?

  • Дубно - Луцк - Броды. Крупнейшее танковое сражение в истории [2014, Документальный, историческое исследование, видиолекция, IPTVRip]

    Ответить на тему
     
    Автор Сообщение

    Columb

    Создавать темы 26-Окт-2014 10:08

           

    [Цитировать]

    Дубно - Луцк - Броды. Крупнейшее танковое сражение в истории
    Дата/Год выпуска: 2014
    Страна: Россия
    Жанр: Документальный, историческое исследование, видиолекция
    Продолжительность: 01:05:55
    Перевод: Не требуется
    Описание: Компания «Wargaming.net» в рамках глобальной инициативы «Помним все» открыла лекторий, который проходит каждое воскресенье в Центральном музее Вооруженных Сил. На одном из них, кандидат исторических наук А. В. Исаев рассказал о крупнейшем танковом сражении в истории.
    Июньское танковое сражение 1941 года в треугольнике Луцк – Броды – Дубно, до сих пор остается одной из самых загадочных страниц отечественной истории. Участвовавшие в нем пять механизированных корпусов Киевского Особого военного округа насчитывали 2800 танков всех типов, от легких БТ и Т-26 до гигантов КВ-2 иТ-35. Противостояли им всего около 800 танков и САУ 1-й танковой группы фон Клейста, из которых только 450 Pz.III и Pz.IV. Если бы эти две танковые армады просто столкнулись на поле подходящих размеров подобно рыцарской коннице, исход битвы было бы легко предсказать. Однако в реальности советские мехкорпуса потеряли большую часть бронетехники и уже через неделю начали отступление.
    Как такое могло случиться? Почему, несмотря на подавляющее численное превосходство, советский контрудар не достиг цели? Как немцам удалось справиться с 340 новейшими KB и Т-34? В чем причины сокрушительного поражения Красной Армии под Дубно?
    Лекция ведущего военного историка, основанная на недавно рассекреченных документах как отечественных, так и зарубежных архивов, впервые представляет не только советскую, но и немецкую точку зрения на величайшее танковое сражение Второй мировой.
    Доп. информация: IPTVRip by alf62

    качество: IPTVRip
    формат: AVI
    Видео: 720x400 (1.80:1), 25 fps, DivX, 1080 kbps avg, 0.15 bit/pixel
    Аудио: 48 kHz, AC3 Dolby Digital, 2/0 (L,R) ch, ~192.00 kbps avg

    MediaInfo

    Krupnejshee.tankovoe.srazhenie.v.istorii.2014.DivX.IPTVRip.alf62.aviФормат : AVIФормат/Информация : Audio Video InterleaveРазмер файла : 603 МбайтПродолжительность : 1 ч. 5 м.Общий поток : 1279 Кбит/секПрограмма кодирования : VirtualDubMod 1.5.10.3 | www.virtualdub-fr.org || (build 2550/release)Библиотека кодирования : VirtualDubMod build 2550/release
    ВидеоИдентификатор : 0Формат : MPEG-4 VisualПрофиль формата : Advanced Simple@L5Параметр BVOP формата : 2Параметр QPel формата : НетПараметр GMC формата : Без точки переходаПараметр матрицы формата : Default (MPEG)Идентификатор кодека : DX50Идентификатор кодека/Подсказка : DivX 5Продолжительность : 1 ч. 5 м.Битрейт : 1077 Кбит/секШирина : 720 пикселейВысота : 400 пикселейСоотношение сторон : 16:9Частота кадров : 25,000 кадров/секЦветовое пространство : YUVСубдискретизация насыщенности : 4:2:0Битовая глубина : 8 битТип развёртки : ПрогрессивнаяМетод сжатия : С потерямиБит/(Пиксели*Кадры) : 0.150Размер потока : 508 Мбайт (84%)Библиотека кодирования : XviD 73
    АудиоИдентификатор : 1Формат : AC-3Формат/Информация : Audio Coding 3Расширение режима : CM (complete main)Параметр Endianness формата : BigИдентификатор кодека : 2000Продолжительность : 1 ч. 5 м.Вид битрейта : ПостоянныйБитрейт : 192 Кбит/секКаналы : 2 каналаРасположение каналов : Front: L RЧастота : 48,0 КГцБитовая глубина : 16 битМетод сжатия : С потерямиРазмер потока : 90,5 Мбайт (15%)Выравнивание : Разделение по промежуткамПродолжительность промежутка : 40 мс. (1,00 видеокадр)Время предзагрузки промежутка : 500 мс.

    Скриншоты


    Скачать .torrent

    Скачать торрент-файл бесплатно и на максимальной скорости!

    Как скачивать? · Что такое торрент? · Рейтинг и ограничения

    !ВНИМАНИЕ!
    Сайт не распространяет и не хранит электронные версии произведений, а занимается лишь лишь предоставлением доступа к создаваемому пользователями каталогу ссылок на торрент-файлы, которые содержат только списки хеш-сумм, убедительная просьба с жалобами обращаться напрямую к пользователю. Файлы для обмена на трекере предоставлены пользователями сайта, и администрация не несёт ответственности за их содержание. Просьба не заливать файлы, защищенные авторскими правами, а также файлы нелегального содержания!

    [Профиль] [ЛС]
    Показать сообщения:    
    Ответить на тему

    Текущее время: Сегодня, в 20:45

    Часовой пояс: GMT + 2



    Вы не можете начинать темы
    Вы не можете отвечать на сообщения
    Вы не можете редактировать свои сообщения
    Вы не можете удалять свои сообщения
    Вы не можете голосовать в опросах
    Вы не можете прикреплять файлы к сообщениям
    Вы не можете скачивать файлы