BitTorrentTracker PerecTracker.org
BitTorrentTracker PerecTracker.org
    
Регистрация  ·  Вход
 
 · 
Забыли пароль?

  • Телохранитель / Сезон: 1 / Серии: 1-4 из 4 (Александр Калугин) [2014, Боевик, криминал, мелодрама, SATRip]

    Ответить на тему
     
    Автор Сообщение

    Columb

    Создавать темы 25-Окт-2014 10:27

           

    [Цитировать]

    Телохранитель
    Год выпуска: 2014
    Производство: Россия , Атос-Фильм
    Жанр: Боевик, криминал, мелодрама
    Продолжительность: 4 x ~ 00:45:00
    Субтитры: Нет
    Режиссёр: Александр Калугин
    В ролях: Евгений Сидихин, Олег Гущин, Любовь Соколинская, Дмитрий Мазуров, Дмитрий Проданов, Николай Качура, Константин Адаев, Максим Башкин, Дмитрий Варшавский, Юрий Осипов, Борис Эстрин
    Описание: Жизнь Александра Соколова, в прошлом - олимпийского чемпиона по боксу, пошла под откос после трагической гибели жены и 15-летней дочери в автокатастрофе, произошедшей по его вине. Александр устроился озеленителем на кладбище, где похоронены его жена и дочь. Там его находит Олег Морозов, в прошлом тоже боксер, а теперь крупный бизнесмен и ресторатор, помнит кумира своей молодости и приглашает его на работу в свой ресторан швейцаром. Вскоре из Лондона приезжает 20-летняя дочь Морозова Настя, а у него самого начинаются серьезные проблемы. После долгих скитаний по лагерям в Москву возвращается его бывший компаньон из лихих 90-х, Коля Подольский, и требует половину уже серьезного бизнеса. За отказ он организует на Морозова с дочерью покушение, и только вмешательство Соколова спасает Настю. Так Александр становится ее телохранителем и постепенно искренне привязывается к ней. Но беда не заставляет себя ждать: Морозова вновь пытаются убить, а Настю похищают...
    Сэмпл
    Качество: SATRip
    Формат: AVI
    Видео кодек: XviD
    Аудио кодек: AC3
    Видео: 720x400 (1.80:1), 25 fps, XviD build 65 ~1550 kbps avg, 0.22 bit/pixel
    Аудио: 44.1 kHz, AC3 Dolby Digital, 2/0 (L,R) ch, ~192 kbpskbps

    MediaInfo

    Общее
    Полное имя : D:\Мои фильмы\Telohranitel'_1-4iz4_2014_XviD_SATRip\Telohranitel'_1_iz_4_2014_SATRip.avi
    Формат : AVI
    Формат/Информация : Audio Video Interleave
    Размер файла : 555 Мбайт
    Продолжительность : 44 м.
    Общий поток : 1752 Кбит/сек
    Библиотека кодирования : VirtualDub build 35491/release
    Видео
    Идентификатор : 0
    Формат : MPEG-4 Visual
    Профиль формата : Advanced Simple@L5
    Параметр BVOP формата : 2
    Параметр QPel формата : Нет
    Параметр GMC формата : Без точки перехода
    Параметр матрицы формата : Выборочная
    Идентификатор кодека : XVID
    Идентификатор кодека/Подсказка : XviD
    Продолжительность : 44 м.
    Битрейт : 1551 Кбит/сек
    Ширина : 720 пикселей
    Высота : 400 пикселей
    Соотношение сторон : 16:9
    Частота кадров : 25,000 кадров/сек
    Цветовое пространство : YUV
    Субдискретизация насыщенности : 4:2:0
    Битовая глубина : 8 бит
    Тип развёртки : Прогрессивная
    Метод сжатия : С потерями
    Бит/(Пиксели*Кадры) : 0.215
    Размер потока : 491 Мбайт (89%)
    Библиотека кодирования : XviD 65
    Аудио
    Идентификатор : 1
    Формат : AC-3
    Формат/Информация : Audio Coding 3
    Расширение режима : CM (complete main)
    Параметр Endianness формата : Big
    Идентификатор кодека : 2000
    Продолжительность : 44 м.
    Вид битрейта : Постоянный
    Битрейт : 192 Кбит/сек
    Каналы : 2 канала
    Расположение каналов : Front: L R
    Частота : 44,1 КГц
    Битовая глубина : 16 бит
    Метод сжатия : С потерями
    Размер потока : 60,7 Мбайт (11%)
    Выравнивание : Соединение по промежуткам
    Продолжительность промежутка : 40 мс. (1,00 видеокадр)
    Время предзагрузки промежутка : 522 мс.

    Скриншоты

    Скачать .torrent

    Скачать торрент-файл бесплатно и на максимальной скорости!

    Как скачивать? · Что такое торрент? · Рейтинг и ограничения

    !ВНИМАНИЕ!
    Сайт не распространяет и не хранит электронные версии произведений, а занимается лишь лишь предоставлением доступа к создаваемому пользователями каталогу ссылок на торрент-файлы, которые содержат только списки хеш-сумм, убедительная просьба с жалобами обращаться напрямую к пользователю. Файлы для обмена на трекере предоставлены пользователями сайта, и администрация не несёт ответственности за их содержание. Просьба не заливать файлы, защищенные авторскими правами, а также файлы нелегального содержания!

    [Профиль] [ЛС]
    Показать сообщения:    
    Ответить на тему

    Текущее время: Сегодня, в 14:49

    Часовой пояс: GMT + 2



    Вы не можете начинать темы
    Вы не можете отвечать на сообщения
    Вы не можете редактировать свои сообщения
    Вы не можете удалять свои сообщения
    Вы не можете голосовать в опросах
    Вы не можете прикреплять файлы к сообщениям
    Вы не можете скачивать файлы