BitTorrentTracker PerecTracker.org
BitTorrentTracker PerecTracker.org
    
Регистрация  ·  Вход
 
 · 
Забыли пароль?

  • Завещание / Testament (Линн Литман /Lynne Littman) [1983, США, драма, постапокалипсис, DVDRip] MVO (Paramount channel) + Original Eng

    Ответить на тему
     
    Автор Сообщение

    Columb

    Создавать темы 25-Окт-2014 08:01

           

    [Цитировать]

    Завещание / Testament
    Страна: США
    Студия: Paramount Pictures, Entertainment Events, American Playhouse
    Жанр: драма, постапокалипсис
    Год выпуска: 1983
    Продолжительность: 01:29:36
    Перевод: Профессиональный (многоголосый закадровый) Paramount channel
    Cубтитры: нет
    Оригинальная аудиодорожка: английский
    Режиссер: Линн Литман /Lynne Littman
    В ролях: Джейн Александр, Уильям Дивэйн, Росси Харрис, Роксана Зэл, Лукас Хаас, Филип Энглим, Лилия Скала, Леон Эймс, Кевин Костнер, Ребекка Де Морнэй, Лёрин Таттл, Мако, Джерри Мурильо
    Описание: Основанная на журнальной статье Кэрол Эймен «Последнее завещание», картина описывает обычное, тихое сообщество в маленьком калифорнийском городке Хэмлин. Спокойствие городка потревожено, когда по телевизору в новостях объявляют, что ядерные бомбы взорвались в Нью-Йорке и на Восточном побережье, и экран внезапно желтеет и изображение стирается, что означает взрывы на Западном побережье. Местный радио оператор Хенри Эбхарт становится единственным средством связи с внешним миром.
    II Сэмпл II [url=http://www.imdb.com/title/tt0086429/]
    IMDB[/url] II
    Качество видео: DVDRip
    Формат видео: AVI
    Видео: Xvid 704x400 (16:9) 23.976fps Bit rate 1927Kbps b/p 0.285
    Аудио 1: AC3 48.0 KHz 2ch. 192kbps rus mvo
    Аудио 2: AC3 48.0 KHz 2ch. 192kbps eng

    MediaInfo

    Общее
    Полное имя : E:\torrent\Testament.1983.DVDRip.avi
    Формат : AVI
    Формат/Информация : Audio Video Interleave
    Размер файла : 1,46 Гбайт
    Продолжительность : 1 ч. 29 м.
    Общий поток : 2326 Кбит/сек
    Программа кодирования : VirtualDubMod 1.5.10.3 (build 2550/release)
    Библиотека кодирования : VirtualDubMod build 2550/release
    Видео
    Идентификатор : 0
    Формат : MPEG-4 Visual
    Профиль формата : Advanced Simple@L5
    Параметр BVOP формата : 2
    Параметр QPel формата : Нет
    Параметр GMC формата : Без точки перехода
    Параметр матрицы формата : Default (H.263)
    Идентификатор кодека : XVID
    Идентификатор кодека/Подсказка : XviD
    Продолжительность : 1 ч. 29 м.
    Битрейт : 1927 Кбит/сек
    Ширина : 704 пикселя
    Высота : 400 пикселей
    Соотношение сторон : 16:9
    Частота кадров : 23,976 кадра/сек
    Цветовое пространство : YUV
    Субдискретизация насыщенности : 4:2:0
    Битовая глубина : 8 бит
    Тип развёртки : Прогрессивная
    Метод сжатия : С потерями
    Бит/(Пиксели*Кадры) : 0.285
    Размер потока : 1,21 Гбайт (83%)
    Библиотека кодирования : XviD 1.2.1 (UTC 2008-12-04)
    Аудио #1
    Идентификатор : 1
    Формат : AC-3
    Формат/Информация : Audio Coding 3
    Расширение режима : CM (complete main)
    Параметр Endianness формата : Big
    Идентификатор кодека : 2000
    Продолжительность : 1 ч. 29 м.
    Вид битрейта : Постоянный
    Битрейт : 192 Кбит/сек
    Каналы : 2 канала
    Расположение каналов : Front: L R
    Частота : 48,0 КГц
    Битовая глубина : 16 бит
    Метод сжатия : С потерями
    Размер потока : 123 Мбайт (8%)
    Выравнивание : Разделение по промежуткам
    Продолжительность промежутка : 42 мс. (1,00 видеокадр)
    Время предзагрузки промежутка : 500 мс.
    Аудио #2
    Идентификатор : 2
    Формат : AC-3
    Формат/Информация : Audio Coding 3
    Расширение режима : CM (complete main)
    Параметр Endianness формата : Big
    Идентификатор кодека : 2000
    Продолжительность : 1 ч. 29 м.
    Вид битрейта : Постоянный
    Битрейт : 192 Кбит/сек
    Каналы : 2 канала
    Расположение каналов : Front: L R
    Частота : 48,0 КГц
    Битовая глубина : 16 бит
    Метод сжатия : С потерями
    Размер потока : 123 Мбайт (8%)
    Выравнивание : Разделение по промежуткам
    Продолжительность промежутка : 42 мс. (1,00 видеокадр)
    Время предзагрузки промежутка : 500 мс.

    Скриншот c названием фильма

    Скриншоты


    Скачать .torrent

    Скачать торрент-файл бесплатно и на максимальной скорости!

    Как скачивать? · Что такое торрент? · Рейтинг и ограничения

    !ВНИМАНИЕ!
    Сайт не распространяет и не хранит электронные версии произведений, а занимается лишь лишь предоставлением доступа к создаваемому пользователями каталогу ссылок на торрент-файлы, которые содержат только списки хеш-сумм, убедительная просьба с жалобами обращаться напрямую к пользователю. Файлы для обмена на трекере предоставлены пользователями сайта, и администрация не несёт ответственности за их содержание. Просьба не заливать файлы, защищенные авторскими правами, а также файлы нелегального содержания!

    [Профиль] [ЛС]
    Показать сообщения:    
    Ответить на тему

    Текущее время: Сегодня, в 02:44

    Часовой пояс: GMT + 2



    Вы не можете начинать темы
    Вы не можете отвечать на сообщения
    Вы не можете редактировать свои сообщения
    Вы не можете удалять свои сообщения
    Вы не можете голосовать в опросах
    Вы не можете прикреплять файлы к сообщениям
    Вы не можете скачивать файлы