BitTorrentTracker PerecTracker.org
BitTorrentTracker PerecTracker.org
    
Регистрация  ·  Вход
 
 · 
Забыли пароль?

  • Одно движение Божье / Ход Бога / God's One Move / The Divine Move (Пом Гю Чо / Beom-gu Cho) [2014, Южная Корея, Драма, криминал, боевик, HDTVRip] DVO (DeadSno & den904)

    Ответить на тему
     
    Автор Сообщение

    Columb

    Создавать темы 18-Окт-2014 11:28

           

    [Цитировать]

    Одно движение Божье / Ход Бога / God's One Move / The Divine Move-Год выпуска: 2014
    Страна: Южная Корея
    Жанр: Драма, криминал, боевик
    Продолжительность: 01:57:49-Перевод: Любительский (двухголосый закадровый) (DeadSno & den904)
    Cубтитры: Нет-Режиссер: Пом Гю Чо / Beom-gu Cho
    В ролях: Киль Кан Ан, Сон Ги Ан, Чжин Хёк Чхве, У Сон Чон, Ин Квон Ким, Бом Су Ли, Си Ён Ли, Мён Су Ким (II), Иль Хва Чхве, Тхэ Вон Квон, Сон У Пэ, Со Хён Ан, Хэ Кён Чон-Описание: Тэ-сок — профессиональный игрок в Го. Его брат любил играть в Го на деньги и был убит группировкой шулеров. Освободившись из тюрьмы, Тэ-сок собирает команду единомышленников и ставит перед собой цель — отомстить за смерть брата.-Сэмпл: http://sendfile.su/1036513-Качество видео: HDTVRip
    Формат видео: AVI
    Видео: DivX 5, 720x304, 23.976fps, 1465kbps
    Аудио: AC3, 48000Hz, 2ch, 192kbps

    MediaInfo

    General
    Complete name : D:\3.Торренты\Odno.dvijenie.bojie.2014.HDTVRip.avi
    Format : AVI
    Format/Info : Audio Video Interleave
    File size : 1.37 GiB
    Duration : 1h 57mn
    Overall bit rate : 1 667 Kbps
    Writing application : VirtualDubMod 1.5.10.3 | www.virtualdub-fr.org || (build 2550/release)
    Writing library : VirtualDubMod build 2550/release
    Video
    ID : 0
    Format : MPEG-4 Visual
    Format profile : Advanced Simple@L5
    Format settings, BVOP : Yes
    Format settings, QPel : No
    Format settings, GMC : No warppoints
    Format settings, Matrix : Default (MPEG)
    Codec ID : DX50
    Codec ID/Hint : DivX 5
    Duration : 1h 57mn
    Bit rate : 1 465 Kbps
    Width : 720 pixels
    Height : 304 pixels
    Display aspect ratio : 2.35:1
    Frame rate : 23.976 fps
    Color space : YUV
    Chroma subsampling : 4:2:0
    Bit depth : 8 bits
    Scan type : Progressive
    Compression mode : Lossy
    Bits/(Pixel*Frame) : 0.279
    Stream size : 1.21 GiB (88%)
    Writing library : XviD 1.2.1 (UTC 2008-12-04)
    Audio
    ID : 1
    Format : AC-3
    Format/Info : Audio Coding 3
    Mode extension : CM (complete main)
    Format settings, Endianness : Big
    Codec ID : 2000
    Duration : 1h 57mn
    Bit rate mode : Constant
    Bit rate : 192 Kbps
    Channel(s) : 2 channels
    Channel positions : Front: L R
    Sampling rate : 48.0 KHz
    Bit depth : 16 bits
    Compression mode : Lossy
    Stream size : 162 MiB (12%)
    Alignment : Split accross interleaves
    Interleave, duration : 42 ms (1.00 video frame)
    Interleave, preload duration : 500 ms

    Скриншот c названием фильма

    Скриншоты

    Скачать .torrent

    Скачать торрент-файл бесплатно и на максимальной скорости!

    Как скачивать? · Что такое торрент? · Рейтинг и ограничения

    !ВНИМАНИЕ!
    Сайт не распространяет и не хранит электронные версии произведений, а занимается лишь лишь предоставлением доступа к создаваемому пользователями каталогу ссылок на торрент-файлы, которые содержат только списки хеш-сумм, убедительная просьба с жалобами обращаться напрямую к пользователю. Файлы для обмена на трекере предоставлены пользователями сайта, и администрация не несёт ответственности за их содержание. Просьба не заливать файлы, защищенные авторскими правами, а также файлы нелегального содержания!

    [Профиль] [ЛС]
    Показать сообщения:    
    Ответить на тему

    Текущее время: Сегодня, в 13:47

    Часовой пояс: GMT + 2



    Вы не можете начинать темы
    Вы не можете отвечать на сообщения
    Вы не можете редактировать свои сообщения
    Вы не можете удалять свои сообщения
    Вы не можете голосовать в опросах
    Вы не можете прикреплять файлы к сообщениям
    Вы не можете скачивать файлы