Register  ·  Log in
Forgot password?

  • Одно движение Божье / Ход Бога / God's One Move / The Divine Move (Пом Гю Чо / Beom-gu Cho) [2014, Южная Корея, Драма, криминал, боевик, HDTVRip] DVO (DeadSno & den904)

    Reply to topic
    Author Message


    Post 18-Oct-2014 12:28



    Одно движение Божье / Ход Бога / God's One Move / The Divine Move-Год выпуска: 2014
    Страна: Южная Корея
    Жанр: Драма, криминал, боевик
    Продолжительность: 01:57:49-Перевод: Любительский (двухголосый закадровый) (DeadSno & den904)
    Cубтитры: Нет-Режиссер: Пом Гю Чо / Beom-gu Cho
    В ролях: Киль Кан Ан, Сон Ги Ан, Чжин Хёк Чхве, У Сон Чон, Ин Квон Ким, Бом Су Ли, Си Ён Ли, Мён Су Ким (II), Иль Хва Чхве, Тхэ Вон Квон, Сон У Пэ, Со Хён Ан, Хэ Кён Чон-Описание: Тэ-сок — профессиональный игрок в Го. Его брат любил играть в Го на деньги и был убит группировкой шулеров. Освободившись из тюрьмы, Тэ-сок собирает команду единомышленников и ставит перед собой цель — отомстить за смерть брата.-Сэмпл:Качество видео: HDTVRip
    Формат видео: AVI
    Видео: DivX 5, 720x304, 23.976fps, 1465kbps
    Аудио: AC3, 48000Hz, 2ch, 192kbps


    Complete name : D:\3.Торренты\Odno.dvijenie.bojie.2014.HDTVRip.avi
    Format : AVI
    Format/Info : Audio Video Interleave
    File size : 1.37 GiB
    Duration : 1h 57mn
    Overall bit rate : 1 667 Kbps
    Writing application : VirtualDubMod | || (build 2550/release)
    Writing library : VirtualDubMod build 2550/release
    ID : 0
    Format : MPEG-4 Visual
    Format profile : Advanced Simple@L5
    Format settings, BVOP : Yes
    Format settings, QPel : No
    Format settings, GMC : No warppoints
    Format settings, Matrix : Default (MPEG)
    Codec ID : DX50
    Codec ID/Hint : DivX 5
    Duration : 1h 57mn
    Bit rate : 1 465 Kbps
    Width : 720 pixels
    Height : 304 pixels
    Display aspect ratio : 2.35:1
    Frame rate : 23.976 fps
    Color space : YUV
    Chroma subsampling : 4:2:0
    Bit depth : 8 bits
    Scan type : Progressive
    Compression mode : Lossy
    Bits/(Pixel*Frame) : 0.279
    Stream size : 1.21 GiB (88%)
    Writing library : XviD 1.2.1 (UTC 2008-12-04)
    ID : 1
    Format : AC-3
    Format/Info : Audio Coding 3
    Mode extension : CM (complete main)
    Format settings, Endianness : Big
    Codec ID : 2000
    Duration : 1h 57mn
    Bit rate mode : Constant
    Bit rate : 192 Kbps
    Channel(s) : 2 channels
    Channel positions : Front: L R
    Sampling rate : 48.0 KHz
    Bit depth : 16 bits
    Compression mode : Lossy
    Stream size : 162 MiB (12%)
    Alignment : Split accross interleaves
    Interleave, duration : 42 ms (1.00 video frame)
    Interleave, preload duration : 500 ms

    Скриншот c названием фильма


    Download .torrent

    Download free and at maximum speed!

    How to Download? · What is a torrent? · Ratings and Limitations

    The site does not extend and does not store electronic(digital) versions of products, and only gives access to a reference catalogue created by users on torrent-files which contain only lists of the hash-sums, the earnest entreaty, with complaints(abuse) to access directly to the user. Files for an exchange on tracker are given by users of a site, and the administration does not bear the responsibility for their maintenance. The request to not fill in the files protected by copyrights, and also files of the illegal maintenance!

    [Profile] [PM]
    Display posts from previous:    
    Reply to topic

    The time now is: Today 02:53

    All times are GMT + 3 Hours

    You cannot post new topics in this forum
    You cannot reply to topics in this forum
    You cannot edit your posts in this forum
    You cannot delete your posts in this forum
    You cannot vote in polls in this forum
    You cannot attach files in this forum
    You cannot download files in this forum