Register  ·  Log in
Forgot password?

  • Неистовство: Смертный приговор / Ярость: Смертная казнь / Rampage: Capital Punishment (Уве Болл / Uwe Boll) [2014, Канада, Германия, Боевик, триллер, HDRip] VO (Александр Харченко)

    Reply to topic
    Author Message


    Post 18-Oct-2014 12:26



    Неистовство: Смертный приговор / Ярость: Смертная казнь / Rampage: Capital Punishment
    Страна: Канада, Германия
    Жанр: Боевик, триллер
    Год выпуска: 2014
    Продолжительность: 01:32:53
    Перевод: Одноголосый закадровый Александр Харченко
    Cубтитры: нет
    Оригинальная аудиодорожка: нет
    Режиссер: Уве Болл / Uwe Boll
    В ролях: Брендан Флетчер, Михаэлла Манн, Нэйтан Лефельдт, Брюс Блэйн, Майк Допуд
    Описание: Билл Уильямсон наносит новый удар. Спустя два года он берет в заложники персонал телеканала с целью воплотить еще один гениальный план…
    Качество видео: HDRip
    Формат видео: AVI
    Видео: 640x352 (2,35:1), 24 fps, XviD build 50 ~989 kbps avg, 0.183 bit/pixel
    Аудио: 48 kHz, MPEG Layer 3, 2 ch, ~128.00 kbps avg ВНИМАНИЕ!!! Фильм содержит сцены жестокости и насилия, а также обсценную лексику.


    Complete name : D:\ФИЛЬМЫ И ПРОЧЕЕ\Ярость 2.avi
    Format : AVI
    Format/Info : Audio Video Interleave
    File size : 748 MiB
    Duration : 1h 32mn
    Overall bit rate : 1 126 Kbps
    Writing application : VirtualDubMod (build 2540/release)
    Writing library : VirtualDubMod build 2540/release
    Video #0
    ID : 0
    Format : MPEG-4 Visual
    Format profile : AdvancedSimple@L5
    Format settings, BVOP : Yes
    Format settings, QPel : No
    Format settings, GMC : No warppoints
    Format settings, Matrix : Default (H.263)
    Codec ID : XVID
    Codec ID/Hint : XviD
    Duration : 1h 32mn
    Bit rate : 989 Kbps
    Width : 640 pixels
    Height : 352 pixels
    Display aspect ratio : 16:9
    Frame rate : 23.976 fps
    Resolution : 24 bits
    Colorimetry : 4:2:0
    Scan type : Progressive
    Bits/(Pixel*Frame) : 0.183
    Stream size : 657 MiB (88%)
    Writing library : XviD 1.2.1 (UTC 2008-12-04)
    Audio #1
    ID : 1
    Format : MPEG Audio
    Format version : Version 1
    Format profile : Layer 3
    Codec ID : 55
    Codec ID/Hint : MP3
    Duration : 1h 32mn
    Bit rate mode : Constant
    Bit rate : 128 Kbps
    Channel(s) : 2 channels
    Sampling rate : 48.0 KHz
    Resolution : 16 bits
    Stream size : 85.0 MiB (11%)
    Alignment : Aligned on interleaves
    Interleave, duration : 42 ms (1.00 video frame)
    Interleave, preload duration : 504 ms

    Скриншот c названием фильма


    Download .torrent

    Download free and at maximum speed!

    How to Download? · What is a torrent? · Ratings and Limitations

    The site does not extend and does not store electronic(digital) versions of products, and only gives access to a reference catalogue created by users on torrent-files which contain only lists of the hash-sums, the earnest entreaty, with complaints(abuse) to access directly to the user. Files for an exchange on tracker are given by users of a site, and the administration does not bear the responsibility for their maintenance. The request to not fill in the files protected by copyrights, and also files of the illegal maintenance!

    [Profile] [PM]
    Display posts from previous:    
    Reply to topic

    The time now is: Today 06:11

    All times are GMT + 3 Hours

    You cannot post new topics in this forum
    You cannot reply to topics in this forum
    You cannot edit your posts in this forum
    You cannot delete your posts in this forum
    You cannot vote in polls in this forum
    You cannot attach files in this forum
    You cannot download files in this forum