BitTorrentTracker PerecTracker.org
BitTorrentTracker PerecTracker.org
    
Регистрация  ·  Вход
 
 · 
Забыли пароль?

  • Злодей / Один злодей / Ek Villain (Мохит Сури / Mohit Suri) [2014, Индия, мелодрама, боевик, DVDRip] MVO (STEPonee)

    Ответить на тему
     
    Автор Сообщение

    Columb

    Создавать темы 18-Окт-2014 11:17

           

    [Цитировать]

    Злодей / Один злодей / Ek Villain
    Год выпуска: 2014
    Страна: Индия
    Жанр: мелодрама, боевик
    Продолжительность: 02:03:47
    Перевод: любительский многоголосый закадровый [STEPonee]

    Русские субтитры: нет
    Оригинальная дорожка: нет
    Режиссёр: Мохит Сури (Mohit Suri)
    В ролях:
  • Сидхарт Мальхотра (Sidharth Malhotra) - Гуру
  • Шраддха Капур (Shraddha Kapoor) - Айша
  • Ритеш Дешмукх (Riteish Deshmukh) - Ракеш
  • Камал Рашид Кхан (Kamaal Rashid Khan) - друг и коллега Ракеша
  • Ремо Фернандес (Remo Fernandes) - Цезарь
  • Шаад Рандхава (Shaad Randhawa)
  • Аамна Шарифф (Aamna Shariff)
    Описание
    Гуру выбрал для себя мир жестокости и криминала. Занимаясь плохими делами, он вселял страх в своих врагов, которые прозвали его Дьяволом и старались не связываться с ним. Но однажды он познакомился с милой девушкой Айшей и влюбился в неё с первого взгляда. Эта встреча сильно изменила жизнь парня, и он решил раз и навсегда завязать со своим прошлым. Молодые поженились, начали новую, счастливую жизнь, но вскоре тёмное прошлое Гуру напомнило о себе. Его злодеяния привели к определенным последствиям, за которые он должен поплатиться. Ему придётся столкнуться с очень опасным врагом, который всегда бьёт свою жертву по самому больному месту...
    Сэмпл
    Роли озвучивали:
  • Олег Кондрашов
  • Натиа Макаридзе
  • Кирилл Дубковский
  • Наталья Скребнева
  • Сергей Здоренко
  • Юлия Холодкова
    Перевод на русский язык: Ольга Платонова

    Скриншот c названием фильма

    Качество: DVDRip
    Формат: AVI
    Видео: XviD, 720x304 (2,35:1), 23,976 к/с, 2064 кбит/с
    Аудио: MP3 2.0, 48 кГц, 192 кбит/с

    Скриншоты

    Подготовка релиза:
  • Натиа Макаридзе - монтаж и работа со звуком
  • Екатерина Проц - постер
  • Оксана Малофеева - тайминг

    Mediainfo

    General
    Complete name : Ek.Villain.2014.DVDRip.XviD.MP3.MVO.STEPonee.avi
    Format : AVI
    Format/Info : Audio Video Interleave
    Format profile : OpenDML
    File size : 2.05 GiB
    Duration : 2h 3mn
    Overall bit rate : 2 373 Kbps
    Writing application : VirtualDubMod 1.5.10.2 (build 2542/release)
    Writing library : VirtualDubMod build 2542/release
    Video
    ID : 0
    Format : MPEG-4 Visual
    Format profile : Advanced Simple@L5
    Format settings, BVOP : 1
    Format settings, QPel : No
    Format settings, GMC : No warppoints
    Format settings, Matrix : Default (H.263)
    Codec ID : XVID
    Codec ID/Hint : XviD
    Duration : 2h 3mn
    Bit rate : 2 169 Kbps
    Width : 720 pixels
    Height : 304 pixels
    Display aspect ratio : 2.35:1
    Frame rate : 23.976 fps
    Color space : YUV
    Chroma subsampling : 4:2:0
    Bit depth : 8 bits
    Scan type : Progressive
    Compression mode : Lossy
    Bits/(Pixel*Frame) : 0.413
    Stream size : 1.88 GiB (91%)
    Writing library : XviD 1.2.1 (UTC 2008-12-04)
    Audio
    ID : 1
    Format : MPEG Audio
    Format version : Version 1
    Format profile : Layer 3
    Mode : Joint stereo
    Codec ID : 55
    Codec ID/Hint : MP3
    Duration : 2h 3mn
    Bit rate mode : Constant
    Bit rate : 192 Kbps
    Channel(s) : 2 channels
    Sampling rate : 48.0 KHz
    Compression mode : Lossy
    Stream size : 170 MiB (8%)
    Alignment : Aligned on interleaves
    Interleave, duration : 42 ms (1.00 video frame)
    Interleave, preload duration : 504 ms
    Скачать .torrent

    Скачать торрент-файл бесплатно и на максимальной скорости!

    Как скачивать? · Что такое торрент? · Рейтинг и ограничения

    !ВНИМАНИЕ!
    Сайт не распространяет и не хранит электронные версии произведений, а занимается лишь лишь предоставлением доступа к создаваемому пользователями каталогу ссылок на торрент-файлы, которые содержат только списки хеш-сумм, убедительная просьба с жалобами обращаться напрямую к пользователю. Файлы для обмена на трекере предоставлены пользователями сайта, и администрация не несёт ответственности за их содержание. Просьба не заливать файлы, защищенные авторскими правами, а также файлы нелегального содержания!

  • [Профиль] [ЛС]
    Показать сообщения:    
    Ответить на тему

    Текущее время: Сегодня, в 20:47

    Часовой пояс: GMT + 2



    Вы не можете начинать темы
    Вы не можете отвечать на сообщения
    Вы не можете редактировать свои сообщения
    Вы не можете удалять свои сообщения
    Вы не можете голосовать в опросах
    Вы не можете прикреплять файлы к сообщениям
    Вы не можете скачивать файлы