BitTorrentTracker PerecTracker.org
BitTorrentTracker PerecTracker.org
    
Регистрация  ·  Вход
 
 · 
Забыли пароль?

  • Шторм Z / Z Storm (Дэвид Лам / David Lam) [2014, Китай, Гонконг, боевик, криминал, BDRip 720p] DVO (DeadSno & den904) + Sub Eng + Original Chi

    Ответить на тему
     
    Автор Сообщение

    Columb

    Создавать темы 17-Окт-2014 17:59

           

    [Цитировать]

    Шторм Z / Z Storm
    Страна: Китай, Гонконг
    Студия: Pegasus Motion Pictures, Sil-Metropole Organisation
    Жанр: боевик, криминал
    Год выпуска: 2014
    Продолжительность: 01:31:44
    Перевод: Любительский (двухголосый закадровый) DeadSno & den904
    Cубтитры: английские(srt)
    Оригинальная аудиодорожка: китайский
    Режиссер: Дэвид Лам / David Lam
    В ролях: Дада Чан, Хаовэнь Цзянь, Луис Ку, Ка Танг Лам, Лью Кай Чи, Хой-Панг Ло, Й.К. Лок, Джанелл Синг, Майкл Вонг...
    Описание: История о самой крупной финансовой махинации, произошедшей в Гонконге, соучастниками которой стали все 7 миллионов его жителей.
    Релиз от -
    Сэмпл: http://multi-up.com/1006640
    Тип релиза: BDRip 720p
    Контейнер: MKV
    Видео: MPEG-4 AVC Video / 4 958 Kbps / 1280 х 536p / 24 fps / 16:9 / High Profile 4.1
    Аудио 1: Dolby Digital Audio / Russian / 5.1 / 48 kHz / 640 kbps - Rus
    Аудио 2: Dolby Digital Audio / Chinese / 5.1 / 48 kHz / 640 kbps - Cantonese
    Аудио 3: Dolby Digital Audio / Chinese / 5.1 / 48 kHz / 640 kbps - Mandarin

    MediaInfo

    General
    Unique ID : 194488556499318706427684284825300432370 (0x9251222BC34C9450A9A65E9DB044F5F2)
    Complete name : D:\kirovtorrent\Z.Storm.2014.720p.BluRay.x264-WiKi.mkv
    Format : Matroska
    Format version : Version 4 / Version 2
    File size : 4.41 GiB
    Duration : 1h 31mn
    Overall bit rate : 6 882 Kbps
    Movie name : Z.Storm.2014.720p
    Encoded date : UTC 2014-10-17 08:02:15
    Writing application : mkvmerge v6.8.0 ('Theme for Great Cities') 64bit built on Mar 2 2014 21:34:26
    Writing library : libebml v1.3.0 + libmatroska v1.4.1
    Video
    ID : 1
    Format : AVC
    Format/Info : Advanced Video Codec
    Format profile : High@L4.1
    Format settings, CABAC : Yes
    Format settings, ReFrames : 12 frames
    Codec ID : V_MPEG4/ISO/AVC
    Duration : 1h 31mn
    Bit rate : 4 958 Kbps
    Width : 1 280 pixels
    Height : 536 pixels
    Display aspect ratio : 2.40:1
    Frame rate mode : Constant
    Frame rate : 24.000 fps
    Color space : YUV
    Chroma subsampling : 4:2:0
    Bit depth : 8 bits
    Scan type : Progressive
    Bits/(Pixel*Frame) : 0.301
    Stream size : 3.09 GiB (70%)
    Title : RG Orient Extreme Films
    Writing library : x264 core 129 r2245+704+36 8e61944 tMod+MixAQ [8-bit@4:2:0 X86_64]
    Encoding settings : cabac=1 / ref=12 / deblock=1:-3:-3 / analyse=0x3:0x133 / me=umh / subme=11 / psy=1 / fade_compensate=0.00 / psy_rd=1.05:0.10 / mixed_ref=1 / me_range=32 / chroma_me=1 / trellis=2 / 8x8dct=1 / cqm=0 / deadzone=21,11 / fast_pskip=0 / chroma_qp_offset=-3 / threads=18 / lookahead_threads=3 / sliced_threads=0 / nr=0 / decimate=0 / interlaced=0 / bluray_compat=0 / constrained_intra=0 / fgo=0 / bframes=10 / b_pyramid=2 / b_adapt=2 / b_bias=0 / direct=3 / weightb=1 / open_gop=0 / weightp=2 / keyint=250 / keyint_min=23 / scenecut=40 / intra_refresh=0 / rc_lookahead=80 / rc=2pass / mbtree=1 / bitrate=4958 / ratetol=1.0 / qcomp=0.70 / qpmin=0 / qpmax=69 / qpstep=4 / cplxblur=20.0 / qblur=0.5 / ip_ratio=1.40 / aq=3 / aq-strength=0.90 / aq-sensitivity=10.00 / aq-ifactor=1.00 / aq-pfactor=1.00 / aq-bfactor=1.00 / aq2=0
    Language : Chinese
    Default : Yes
    Forced : No
    Matrix coefficients : BT.709
    Audio #1
    ID : 2
    Format : AC-3
    Format/Info : Audio Coding 3
    Mode extension : CM (complete main)
    Format settings, Endianness : Big
    Codec ID : A_AC3
    Duration : 1h 31mn
    Bit rate mode : Constant
    Bit rate : 640 Kbps
    Channel(s) : 6 channels
    Channel positions : Front: L C R, Side: L R, LFE
    Sampling rate : 48.0 KHz
    Bit depth : 16 bits
    Compression mode : Lossy
    Stream size : 420 MiB (9%)
    Title : DVO (DeadSno & den904) AC3 5.1 @ 640k
    Language : Russian
    Default : Yes
    Forced : No
    Audio #2
    ID : 3
    Format : AC-3
    Format/Info : Audio Coding 3
    Mode extension : CM (complete main)
    Format settings, Endianness : Big
    Codec ID : A_AC3
    Duration : 1h 31mn
    Bit rate mode : Constant
    Bit rate : 640 Kbps
    Channel(s) : 6 channels
    Channel positions : Front: L C R, Side: L R, LFE
    Sampling rate : 48.0 KHz
    Bit depth : 16 bits
    Compression mode : Lossy
    Stream size : 420 MiB (9%)
    Title : Cantonese AC3 5.1 @ 640k
    Language : Chinese
    Default : No
    Forced : No
    Audio #3
    ID : 4
    Format : AC-3
    Format/Info : Audio Coding 3
    Mode extension : CM (complete main)
    Format settings, Endianness : Big
    Codec ID : A_AC3
    Duration : 1h 31mn
    Bit rate mode : Constant
    Bit rate : 640 Kbps
    Channel(s) : 6 channels
    Channel positions : Front: L C R, Side: L R, LFE
    Sampling rate : 48.0 KHz
    Bit depth : 16 bits
    Compression mode : Lossy
    Stream size : 420 MiB (9%)
    Title : Mandarin AC3 5.1 @ 640k
    Language : Chinese
    Default : No
    Forced : No
    Text
    ID : 5
    Format : UTF-8
    Codec ID : S_TEXT/UTF8
    Codec ID/Info : UTF-8 Plain Text
    Language : English
    Default : No
    Forced : No
    Menu
    00:00:00.000 : en:00:00:00.000
    00:07:53.166 : en:00:07:53.166
    00:15:17.833 : en:00:15:17.833
    00:23:08.708 : en:00:23:08.708
    00:30:44.500 : en:00:30:44.500
    00:38:26.916 : en:00:38:26.916
    00:46:57.833 : en:00:46:57.833
    00:53:10.791 : en:00:53:10.791
    00:59:52.583 : en:00:59:52.583
    01:08:31.791 : en:01:08:31.791
    01:17:00.833 : en:01:17:00.833
    01:24:01.958 : en:01:24:01.958

    Скриншоты

    Скачать .torrent

    Скачать торрент-файл бесплатно и на максимальной скорости!

    Как скачивать? · Что такое торрент? · Рейтинг и ограничения

    !ВНИМАНИЕ!
    Сайт не распространяет и не хранит электронные версии произведений, а занимается лишь лишь предоставлением доступа к создаваемому пользователями каталогу ссылок на торрент-файлы, которые содержат только списки хеш-сумм, убедительная просьба с жалобами обращаться напрямую к пользователю. Файлы для обмена на трекере предоставлены пользователями сайта, и администрация не несёт ответственности за их содержание. Просьба не заливать файлы, защищенные авторскими правами, а также файлы нелегального содержания!

    [Профиль] [ЛС]
    Показать сообщения:    
    Ответить на тему

    Текущее время: Сегодня, в 19:51

    Часовой пояс: GMT + 2



    Вы не можете начинать темы
    Вы не можете отвечать на сообщения
    Вы не можете редактировать свои сообщения
    Вы не можете удалять свои сообщения
    Вы не можете голосовать в опросах
    Вы не можете прикреплять файлы к сообщениям
    Вы не можете скачивать файлы