BitTorrentTracker PerecTracker.org
BitTorrentTracker PerecTracker.org
    
Регистрация  ·  Вход
 
 · 
Забыли пароль?

  • Колючка / Thorn (Ким Тэ Гюн / Kim Tae Gyun) [2014, Южная Корея, триллер, школьная драма, HDRip] MVO (STEPonee)

    Ответить на тему
     
    Автор Сообщение

    Columb

    Создавать темы 13-Окт-2014 12:52

           

    [Цитировать]

    Колючка / Innocent Thing / Thorn / 가시 / Gashi
    Фильм содержит эротические сцены и не рекомендуется к просмотру лицам до 18 лет
    Год выпуска: 2014
    Страна: Южная Корея
    Жанр: триллер, школьная драма
    Продолжительность: 01:58:00
    Перевод: любительский многоголосый закадровый [STEPonee]

    Русские субтитры: нет
    Режиссёр: Ким Тэ Гюн (Kim Tae Gyun)
    В ролях:
    Чан Хёк (Jang Hyuk) - Чжун Ки
    Чо Бо А (Jo Bo Ah) - Ён Ын
    Ли До А (Lee Do Ah) - учитель, друг Чжун Ки
    Сон У Сон (Sun Woo Sun) - Со Ен, жена Чжун Ки
    До Кван Вон (Do Kwang Won) - Сок Чжин
    Описание
    Чжун Ки - очень популярный учитель в средней школе. Его ученица Ён Ын, как и многие другие, влюбилась в своего педагога. Более того - призналась ему в этом. Однако тот остался безразличен к чувствам своей ученицы. Тогда Ён Ын решает подружиться с женой любимого, чтобы стать ближе к нему.
    Сэмпл
    Роли озвучивали:
  • Архелон
  • Натиа Макаридзе
  • Артём Кротов
  • Наталья Скребнева
  • Ирина Пометнёва
    Перевод на русский язык: Анастасия Трашкова
    Редакция: Ольга Платонова

    Скриншот c названием фильма

    Качество: HDRip
    Формат: AVI
    Видео: XviD, 720x320 (2.25:1), 23,976 к/с, 1594 кбит/с
    Аудио: MP3 2.0, 48 кГц, 192 кбит/с

    Отчёт MediaInfo

    General
    Complete name : Thorn.2014.HDRip.XviD.720p.MP3.MVO.STEPonee.avi
    Format : AVI
    Format/Info : Audio Video Interleave
    File size : 1,48 GiB
    Duration : 1h 58mn
    Overall bit rate : 1795 Kbps
    Writing application : VirtualDubModRus 1.5.10.2 (build 2542/release)
    Writing library : VirtualDubMod build 2542/release
    Video
    ID : 0
    Format : MPEG-4 Visual
    Format profile : Advanced Simple@L5
    Format settings, BVOP : 1
    Format settings, QPel : No
    Format settings, GMC : No warppoints
    Format settings, Matrix : Default (H.263)
    Codec ID : XVID
    Codec ID/Hint : XviD
    Duration : 1h 58mn
    Bit rate : 1594 Kbps
    Width : 720 pixels
    Height : 320 pixels
    Display aspect ratio : 2,25:1
    Frame rate : 23.976 fps
    Color space : YUV
    Chroma subsampling : 4:2:0
    Bit depth : 8 bits
    Scan type : Progressive
    Compression mode : Lossy
    Bits/(Pixel*Frame) : 0.288
    Stream size : 1.32 GiB (90%)
    Writing library : XviD 1.2.1.dev47 (UTC 2008-12-04)
    Audio
    ID : 1
    Format : MPEG Audio
    Format version : Version 1
    Format profile : Layer 3
    Mode : Joint stereo
    Mode extension : MS Stereo
    Codec ID : 55
    Codec ID/Hint : MP3
    Duration : 1h 58mn
    Bit rate mode : Constant
    Bit rate : 192 Kbps
    Channel(s) : 2 channels
    Sampling rate : 48.0 KHz
    Compression mode : Lossy
    Stream size : 162 MiB (11%)
    Alignment : Aligned on interleaves
    Interleave, duration : 42 ms (1.00 video frame)
    Interleave, preload duration : 500 ms

    Скриншоты

    Подготовка релиза:
  • Натиа Макаридзе - обработка звука, монтаж
  • Оксана Малофеева - тайминг
  • Анна Лефлер, Юрий Балякин - постер
    Скачать .torrent

    Скачать торрент-файл бесплатно и на максимальной скорости!

    Как скачивать? · Что такое торрент? · Рейтинг и ограничения

    !ВНИМАНИЕ!
    Сайт не распространяет и не хранит электронные версии произведений, а занимается лишь лишь предоставлением доступа к создаваемому пользователями каталогу ссылок на торрент-файлы, которые содержат только списки хеш-сумм, убедительная просьба с жалобами обращаться напрямую к пользователю. Файлы для обмена на трекере предоставлены пользователями сайта, и администрация не несёт ответственности за их содержание. Просьба не заливать файлы, защищенные авторскими правами, а также файлы нелегального содержания!

  • [Профиль] [ЛС]
    Показать сообщения:    
    Ответить на тему

    Текущее время: Сегодня, в 11:45

    Часовой пояс: GMT + 2



    Вы не можете начинать темы
    Вы не можете отвечать на сообщения
    Вы не можете редактировать свои сообщения
    Вы не можете удалять свои сообщения
    Вы не можете голосовать в опросах
    Вы не можете прикреплять файлы к сообщениям
    Вы не можете скачивать файлы