BitTorrentTracker PerecTracker.org
BitTorrentTracker PerecTracker.org
    
Регистрация  ·  Вход
 
 · 
Забыли пароль?

  • Чемпионат Аргентины 2014-2015 / 10-й тур /Дефенса-Арсенал С [2014 г., Футбол, SATRip]

    Ответить на тему
     
    Автор Сообщение

    Columb

    Создавать темы 05-Окт-2014 10:51

           

    [Цитировать]

    Чемпионат Аргентины 2014-2015 / 10-й тур /Дефенса-Арсенал С
    Год/Дата Выпуска: 2014
    Вид спорта: Футбол
    Участники: Дефенса-Арсенал С
    Продолжительность: 01:54:03
    Комментарий: Отсутствует
    Описание: Матч 10-го тура Аргентины
    Доп. информация: матч начинается с 5 минуты
    Качество: SATRip
    Формат: MPEG
    Видео кодек: MPEG-4
    Аудио кодек: AAC
    Видео: 640x360 (16:9),25,000 кадров/сек,MPEG-4,~696 Кбит/сек
    Аудио: 44,1 КГц,AAC 2h,~104 Кбит/сек

    MediaInfo

    General
    Complete name : E:\Youtube\Defensa - Arsenal.mp4
    Format : MPEG-4
    Format profile : Base Media / Version 2
    Codec ID : mp42
    File size : 568 MiB
    Duration : 1h 54mn
    Overall bit rate mode : Variable
    Overall bit rate : 696 Kbps
    Encoded date : UTC 2014-10-04 23:18:05
    Tagged date : UTC 2014-10-04 23:18:05
    gsst : 0
    gstd : 6843570
    gssd : BB2FB6C45HM1412490065294964
    Video
    ID : 1
    Format : AVC
    Format/Info : Advanced Video Codec
    Format profile : Baseline@L3.0
    Format settings, CABAC : No
    Format settings, ReFrames : 1 frame
    Codec ID : avc1
    Codec ID/Info : Advanced Video Coding
    Duration : 1h 54mn
    Bit rate : 598 Kbps
    Maximum bit rate : 3 164 Kbps
    Width : 640 pixels
    Height : 360 pixels
    Display aspect ratio : 16:9
    Frame rate mode : Constant
    Frame rate : 25.000 fps
    Color space : YUV
    Chroma subsampling : 4:2:0
    Bit depth : 8 bits
    Scan type : Progressive
    Bits/(Pixel*Frame) : 0.104
    Stream size : 488 MiB (86%)
    Tagged date : UTC 2014-10-04 23:19:25
    Audio
    ID : 2
    Format : AAC
    Format/Info : Advanced Audio Codec
    Format profile : LC
    Codec ID : 40
    Duration : 1h 54mn
    Bit rate mode : Variable
    Bit rate : 96.0 Kbps
    Maximum bit rate : 104 Kbps
    Channel(s) : 2 channels
    Channel positions : Front: L R
    Sampling rate : 44.1 KHz
    Compression mode : Lossy
    Stream size : 78.3 MiB (14%)
    Title : IsoMedia File Produced by Google, 5-11-2011
    Encoded date : UTC 2014-10-04 23:19:10
    Tagged date : UTC 2014-10-04 23:19:25

    Скриншоты

    Скачать .torrent

    Скачать торрент-файл бесплатно и на максимальной скорости!

    Как скачивать? · Что такое торрент? · Рейтинг и ограничения

    !ВНИМАНИЕ!
    Сайт не распространяет и не хранит электронные версии произведений, а занимается лишь лишь предоставлением доступа к создаваемому пользователями каталогу ссылок на торрент-файлы, которые содержат только списки хеш-сумм, убедительная просьба с жалобами обращаться напрямую к пользователю. Файлы для обмена на трекере предоставлены пользователями сайта, и администрация не несёт ответственности за их содержание. Просьба не заливать файлы, защищенные авторскими правами, а также файлы нелегального содержания!

    [Профиль] [ЛС]
    Показать сообщения:    
    Ответить на тему

    Текущее время: Сегодня, в 23:56

    Часовой пояс: GMT + 2



    Вы не можете начинать темы
    Вы не можете отвечать на сообщения
    Вы не можете редактировать свои сообщения
    Вы не можете удалять свои сообщения
    Вы не можете голосовать в опросах
    Вы не можете прикреплять файлы к сообщениям
    Вы не можете скачивать файлы