BitTorrentTracker PerecTracker.org
BitTorrentTracker PerecTracker.org
    
Регистрация  ·  Вход
 
 · 
Забыли пароль?

  • Пропавшие письма / Signed, Sealed, Delivered / Сезон: 1 / Серии: 0-10 из 10 (Скотт Смит) [2014, драма, HDTVRip-AVC] Original + Sub Rus (Notabenoid) + Sub Eng

    Ответить на тему
     
    Автор Сообщение

    Columb

    Создавать темы 28-Сен-2014 11:50

           

    [Цитировать]

    Пропавшие письма / Signed, Sealed, DeliveredГод выпуска: 2014
    Страна: США
    Жанр: драма
    Продолжительность: 00:42:00 (Нулевой эпизод 01:30:00)
    Перевод: Субтитры [Notabenoid]
    Переводчики: Katie_7, Svaja4ka, MDit, DJul, Lutenia, Dadana, meliora_spero (1-10); cherednichen (0)
    Режиссёр: Скотт Смит-В ролях: Эрик Мэбиас, Кристин Бут, Кристал Лоу, Джофф Густафссон, Кристин Уиллз, Джессика Хэрмон, Ширли Бродерик, Валери Харпер, Спенсер Древер, Кристина Ястржембска и др.-Описание: Созданный по мотивам бестселлера Марты Уильямсон сериал "Пропавшие письма", расскажет о четырех работниках "отдела мертвых писем" американской почты. Они по своему желанию превратились в детективов пропавших писем. Они решили доставлять письма любой ценой, ведь письма и посылки могут спасти жизни, раскрыть преступление, соединить старую любовь и изменить жизнь тем, кто почту получит чудесным образом ровно тогда, когда они в этом нуждаются. История развернется вокруг очаровательного и красивого (но своеобразного) Оливера, который до сих пор считает запечатанное бумажное письмо золотым стандартом человеческого общения. Его незадачливая команда потерянных писем, свободная духом Рита и немного странный Норман, не на шутку встревожились с появлением красивой, помешанной на технике Шейн, которую по ошбке перевели в их святая святых. Шейн вдохновляет команду рискнуть и попытаться очистить имя ложно обвиненногомужчину и воссоединить его со своей любимой.-Качество: HDTVRip-AVC
    Формат: MP4
    Видео кодек: H.264
    Аудио кодек: AAC
    Видео (0): 720x404, 23.976 fps, x264 ~1000 kbps avg, 0.153 bit/pixel
    Аудио (0): 48 kHz, AAC LC, 2 ch, ~128.00 kbps avg
    Видео (1-10): 720x404, 23.976 fps, x264 ~780 kbps avg, 0.112 bit/pixel
    Аудио (1-10): 48 kHz, AAC LC, 2 ch, ~128.00 kbps avg
    Субтитры: Русские, Английские-Все раздачи сериала / Сэмпл / TVRAGE / IMDB / КиноПоиск-MediaInfo

    0

    General
    Complete name                            : C:\!смотреть\Раздачи\Signed.Sealed.Delivered.S01.HDTV.x264\Signed.Sealed.Delivered.S01E00.HDTV.x264.mp4
    Format                                   : MPEG-4
    Format profile                           : Base Media
    Codec ID                                 : isom
    File size                                : 737 MiB
    Duration                                 : 1h 26mn
    Overall bit rate mode                    : Variable
    Overall bit rate                         : 1 196 Kbps
    Encoded date                             : UTC 2014-05-01 16:06:56
    Tagged date                              : UTC 2014-05-01 16:06:56
    Video
    ID                                       : 1
    Format                                   : AVC
    Format/Info                              : Advanced Video Codec
    Format profile                           : High@L3.1
    Format settings, CABAC                   : Yes
    Format settings, ReFrames                : 5 frames
    Codec ID                                 : avc1
    Codec ID/Info                            : Advanced Video Coding
    Duration                                 : 1h 26mn
    Bit rate                                 : 1 064 Kbps
    Maximum bit rate                         : 7 198 Kbps
    Width                                    : 720 pixels
    Height                                   : 404 pixels
    Display aspect ratio                     : 16:9
    Frame rate mode                          : Constant
    Frame rate                               : 23.976 fps
    Color space                              : YUV
    Chroma subsampling                       : 4:2:0
    Bit depth                                : 8 bits
    Scan type                                : Progressive
    Bits/(Pixel*Frame)                       : 0.153
    Stream size                              : 656 MiB (89%)
    Writing library                          : x264 core 142 r2409 d6b4e63
    Encoding settings                        : cabac=1 / ref=5 / deblock=1:0:0 / analyse=0x3:0x113 / me=umh / subme=8 / psy=1 / psy_rd=1.00:0.00 / mixed_ref=1 / me_range=16 / chroma_me=1 / trellis=1 / 8x8dct=1 / cqm=0 / deadzone=21,11 / fast_pskip=1 / chroma_qp_offset=-2 / threads=6 / lookahead_threads=1 / sliced_threads=0 / nr=0 / decimate=1 / interlaced=0 / bluray_compat=0 / constrained_intra=0 / bframes=3 / b_pyramid=2 / b_adapt=2 / b_bias=0 / direct=3 / weightb=1 / open_gop=0 / weightp=2 / keyint=250 / keyint_min=25 / scenecut=40 / intra_refresh=0 / rc_lookahead=50 / rc=crf / mbtree=1 / crf=19.0 / qcomp=0.60 / qpmin=0 / qpmax=69 / qpstep=4 / ip_ratio=1.40 / aq=1:1.00
    Encoded date                             : UTC 2014-05-01 16:06:56
    Tagged date                              : UTC 2014-05-01 16:07:02
    Matrix coefficients                      : BT.709
    Audio
    ID                                       : 2
    Format                                   : AAC
    Format/Info                              : Advanced Audio Codec
    Format profile                           : LC
    Codec ID                                 : 40
    Duration                                 : 1h 26mn
    Bit rate mode                            : Variable
    Bit rate                                 : 128 Kbps
    Maximum bit rate                         : 252 Kbps
    Channel(s)                               : 2 channels
    Channel positions                        : Front: L R
    Sampling rate                            : 48.0 KHz
    Compression mode                         : Lossy
    Stream size                              : 78.9 MiB (11%)
    Encoded date                             : UTC 2014-05-01 16:07:01
    Tagged date                              : UTC 2014-05-01 16:07:02

    1-10

    General
    Complete name                            : C:\!смотреть\Раздачи\Signed.Sealed.Delivered.S01.HDTV.x264\Signed.Sealed.Delivered.S01E01.HDTV.x264.mp4
    Format                                   : MPEG-4
    Format profile                           : Base Media
    Codec ID                                 : isom
    File size                                : 278 MiB
    Duration                                 : 42mn 40s
    Overall bit rate mode                    : Variable
    Overall bit rate                         : 911 Kbps
    Encoded date                             : UTC 2014-04-21 01:21:09
    Tagged date                              : UTC 2014-04-21 01:21:09
    Video
    ID                                       : 1
    Format                                   : AVC
    Format/Info                              : Advanced Video Codec
    Format profile                           : High@L3.1
    Format settings, CABAC                   : Yes
    Format settings, ReFrames                : 5 frames
    Codec ID                                 : avc1
    Codec ID/Info                            : Advanced Video Coding
    Duration                                 : 42mn 40s
    Bit rate                                 : 780 Kbps
    Maximum bit rate                         : 3 401 Kbps
    Width                                    : 720 pixels
    Height                                   : 404 pixels
    Display aspect ratio                     : 16:9
    Frame rate mode                          : Constant
    Frame rate                               : 23.976 fps
    Color space                              : YUV
    Chroma subsampling                       : 4:2:0
    Bit depth                                : 8 bits
    Scan type                                : Progressive
    Bits/(Pixel*Frame)                       : 0.112
    Stream size                              : 238 MiB (86%)
    Writing library                          : x264 core 142 r2409 d6b4e63
    Encoding settings                        : cabac=1 / ref=5 / deblock=1:0:0 / analyse=0x3:0x113 / me=umh / subme=8 / psy=1 / psy_rd=1.00:0.00 / mixed_ref=1 / me_range=16 / chroma_me=1 / trellis=1 / 8x8dct=1 / cqm=0 / deadzone=21,11 / fast_pskip=1 / chroma_qp_offset=-2 / threads=12 / lookahead_threads=2 / sliced_threads=0 / nr=0 / decimate=1 / interlaced=0 / bluray_compat=0 / constrained_intra=0 / bframes=3 / b_pyramid=2 / b_adapt=2 / b_bias=0 / direct=3 / weightb=1 / open_gop=0 / weightp=2 / keyint=250 / keyint_min=23 / scenecut=40 / intra_refresh=0 / rc_lookahead=50 / rc=crf / mbtree=1 / crf=19.0 / qcomp=0.60 / qpmin=0 / qpmax=69 / qpstep=4 / ip_ratio=1.40 / aq=1:1.00
    Encoded date                             : UTC 2014-04-21 01:21:08
    Tagged date                              : UTC 2014-04-21 01:21:10
    Matrix coefficients                      : BT.709
    Audio
    ID                                       : 2
    Format                                   : AAC
    Format/Info                              : Advanced Audio Codec
    Format profile                           : LC
    Codec ID                                 : 40
    Duration                                 : 42mn 40s
    Bit rate mode                            : Variable
    Bit rate                                 : 127 Kbps
    Maximum bit rate                         : 143 Kbps
    Channel(s)                               : 2 channels
    Channel positions                        : Front: L R
    Sampling rate                            : 48.0 KHz
    Compression mode                         : Lossy
    Delay relative to video                  : 83ms
    Stream size                              : 38.8 MiB (14%)
    Encoded date                             : UTC 2014-04-21 01:21:10
    Tagged date                              : UTC 2014-04-21 01:21:10

    Скриншоты

    Внимание! Раздача ведется путем добавления новых серий

    Внимание! Раздача ведётся путём добавления новых серий; при каждом добавлении создаётся новый торрент. Чтобы начать докачку новой серии, пользователям необходимо сделать следующее:
    (1) остановить скачивание,
    (2) удалить старый торрент-файл у себя из клиента (старые серии удалять не надо),
    (3) скачать новый торрент-файл из раздачи и запустить его у себя в клиенте вместо старого, при этом указать клиенту путь в старую папку, куда и должно происходить скачивание новых серий.
    Ваш клиент при этом должен произвести хеширование (проверку) старой папки (если не производит сам - помогите ему сделать это), и будет докачивать только те серии, которых у Вас ещё нет. Старые серии при этом не удаляются, а продолжают раздаваться!
    Eсли Вы уже посмотрели и удалили старые серии, то предотвратить повторную закачку старых серий можно, сняв галочки в соответсвующих местах при запуске нового торрента. По возможности, желательно не удалять старые серии как можно дольше чтобы релизёр не столько продолжал раздавать старые серии, сколько сконцентрироваться на новых.
    Скачать .torrent

    Скачать торрент-файл бесплатно и на максимальной скорости!

    Как скачивать? · Что такое торрент? · Рейтинг и ограничения

    !ВНИМАНИЕ!
    Сайт не распространяет и не хранит электронные версии произведений, а занимается лишь лишь предоставлением доступа к создаваемому пользователями каталогу ссылок на торрент-файлы, которые содержат только списки хеш-сумм, убедительная просьба с жалобами обращаться напрямую к пользователю. Файлы для обмена на трекере предоставлены пользователями сайта, и администрация не несёт ответственности за их содержание. Просьба не заливать файлы, защищенные авторскими правами, а также файлы нелегального содержания!

    [Профиль] [ЛС]
    Показать сообщения:    
    Ответить на тему

    Текущее время: Сегодня, в 06:10

    Часовой пояс: GMT + 2



    Вы не можете начинать темы
    Вы не можете отвечать на сообщения
    Вы не можете редактировать свои сообщения
    Вы не можете удалять свои сообщения
    Вы не можете голосовать в опросах
    Вы не можете прикреплять файлы к сообщениям
    Вы не можете скачивать файлы