BitTorrentTracker PerecTracker.org
BitTorrentTracker PerecTracker.org
    
Регистрация  ·  Вход
 
 · 
Забыли пароль?

  • Нация Z / Z Nation / Сезон: 1 / Серии: 1-3 из 13 (Джон Хайамс, Абрам Кокс) [2014, хоррор, зомби, ужастик, научная фантастика, WEB-DLRip] MVO (BaibaKo) + Original

    Ответить на тему
     
    Автор Сообщение

    Columb

    Создавать темы 28-Сен-2014 11:46

           

    [Цитировать]

    Нация Z / Z Nation
    Год выпуска: 2014
    Страна: США
    Жанр: хоррор, зомби, ужастик, научная фантастика
    Продолжительность: 00:43:00
    Перевод: Профессиональный (многоголосый закадровый) BaibaKo
    Русские субтитры: нет
    Режиссёр: Джон Хайамс, Абрам Кокс
    В ролях: Гарольд Перрино, Том Эверетт Скотт, Ди Джей Куаллс, Майкл Уэлш, Келлита Смит, Анастасия Баранова, Расселл Ходжкинсон, Кит Аллан
    Описание: Прошло три года с тех пор, как зомби-вирус скосил США, однако группа выживших должна провезти единственного пережившего вирус человека через тысячи миль из Нью-Йорка в Калифорнию, где располагается единственная функционирующая лаборатория, ожидающая анализа его крови. Его антитела — последняя надежда человечества на вакцину. Однако, этот человек таит страшные секреты, которые угрожают им всем.
    Ссылка на предыдущие и альтернативные раздачи
    Сэмпл: http://sendfile.su/1022421
    Качество: WEB-DLRip
    Формат: AVI
    Видео кодек: XviD
    Аудио кодек: MP3
    Видео: XviD, 720x400, 23.976 fps, 1 508 Kbps, 0.218 bit/pixel
    Аудио: MP3, 48000 Hz, 2 ch, 192 kbps, Rus
    Аудио: MP3, 48000 Hz, 2 ch, 192 kbps, Eng
    Субтитры: отсутствуют

    Релиз

    Перевод: Наталья Черненко
    Озвучка: Ольга Мотрич, Anna_Smile, Олекса Мельник и Алексей Кузнецов
    Монтаж: Павел Дежин

    MediaInfo

    Z.Nation.s01e01.WEB-DLRip.XviD.Rus.Eng.BaibaKo.tv.avi
    Format : AVI
    Format/Info : Audio Video Interleave
    File size : 587 MiB
    Duration : 43mn 1s
    Overall bit rate : 1 906 Kbps
    Writing application : VirtualDubMod 1.5.10.2 (build 2540/release)
    Writing library : VirtualDubMod build 2540/release
    Video
    ID : 0
    Format : MPEG-4 Visual
    Format profile : Advanced Simple@L5
    Format settings, BVOP : 2
    Format settings, QPel : No
    Format settings, GMC : No warppoints
    Format settings, Matrix : Default (H.263)
    Codec ID : XVID
    Codec ID/Hint : XviD
    Duration : 43mn 1s
    Bit rate : 1 508 Kbps
    Width : 720 pixels
    Height : 400 pixels
    Display aspect ratio : 16:9
    Frame rate : 23.976 fps
    Color space : YUV
    Chroma subsampling : 4:2:0
    Bit depth : 8 bits
    Scan type : Progressive
    Compression mode : Lossy
    Bits/(Pixel*Frame) : 0.218
    Stream size : 464 MiB (79%)
    Writing library : XviD 1.2.1 (UTC 2008-12-04)
    Audio #1
    ID : 1
    Format : MPEG Audio
    Format version : Version 1
    Format profile : Layer 3
    Mode : Joint stereo
    Mode extension : MS Stereo
    Codec ID : 55
    Codec ID/Hint : MP3
    Duration : 43mn 1s
    Bit rate mode : Constant
    Bit rate : 192 Kbps
    Channel(s) : 2 channels
    Sampling rate : 48.0 KHz
    Compression mode : Lossy
    Stream size : 59.1 MiB (10%)
    Alignment : Aligned on interleaves
    Interleave, duration : 42 ms (1.00 video frame)
    Interleave, preload duration : 504 ms
    Writing library : LAME3.99.5
    Audio #2
    ID : 2
    Format : MPEG Audio
    Format version : Version 1
    Format profile : Layer 3
    Mode : Joint stereo
    Mode extension : MS Stereo
    Codec ID : 55
    Codec ID/Hint : MP3
    Duration : 43mn 1s
    Bit rate mode : Constant
    Bit rate : 192 Kbps
    Channel(s) : 2 channels
    Sampling rate : 48.0 KHz
    Compression mode : Lossy
    Stream size : 59.1 MiB (10%)
    Alignment : Aligned on interleaves
    Interleave, duration : 42 ms (1.00 video frame)
    Interleave, preload duration : 504 ms

    Скриншоты

    Внимание! Раздача ведётся путём добавления новых серий

    Внимание! Раздача ведётся путём добавления новых серий; при каждом добавлении создаётся новый торрент. Чтобы начать докачку новой серии, пользователям необходимо сделать следующее:
    (1) остановить скачивание,
    (2) удалить старый торрент у себя из клиента (старые серии удалять не надо),
    (3) скачать новый торрент и запустить его у себя в клиенте вместо старого, при этом указать клиенту путь в старую папку куда и должно происходить скачивание новых серий.
    Ваш клиент при этом должен произвести хеширование (проверку) старой папки (если не производит сам - помогите ему сделать это), и будет докачивать только те серии которых у вас ещё нет. Старые серии при этом не удаляются, а продолжают раздаваться!
    Eсли вы уже удалили старые серии, то предотвратить повторную закачку старых серий можно, отжав галочку в соответствующих местах при запуске нового торрента. По возможности, желательно не удалять старые серии как можно дольше чтобы релизёр не столько продолжал раздавать старые серии, а смог сконцентрироваться на новых.
    Скачать .torrent

    Скачать торрент-файл бесплатно и на максимальной скорости!

    Как скачивать? · Что такое торрент? · Рейтинг и ограничения

    !ВНИМАНИЕ!
    Сайт не распространяет и не хранит электронные версии произведений, а занимается лишь лишь предоставлением доступа к создаваемому пользователями каталогу ссылок на торрент-файлы, которые содержат только списки хеш-сумм, убедительная просьба с жалобами обращаться напрямую к пользователю. Файлы для обмена на трекере предоставлены пользователями сайта, и администрация не несёт ответственности за их содержание. Просьба не заливать файлы, защищенные авторскими правами, а также файлы нелегального содержания!

    [Профиль] [ЛС]
    Показать сообщения:    
    Ответить на тему

    Текущее время: Сегодня, в 08:48

    Часовой пояс: GMT + 2



    Вы не можете начинать темы
    Вы не можете отвечать на сообщения
    Вы не можете редактировать свои сообщения
    Вы не можете удалять свои сообщения
    Вы не можете голосовать в опросах
    Вы не можете прикреплять файлы к сообщениям
    Вы не можете скачивать файлы