BitTorrentTracker PerecTracker.org
BitTorrentTracker PerecTracker.org
    
Регистрация  ·  Вход
 
 · 
Забыли пароль?

  • Прибей или умри / Kill la Kill [TV] [24 из 24] [Без хардсаба] [RUS(int), JAP+SUB] [2013 г., приключения, школа, HDTVRip] [HWP]

    Ответить на тему
     
    Автор Сообщение

    Columb

    Создавать темы 28-Сен-2014 11:37

           

    [Цитировать]

    Прибей или умри / Kill la Kill
    Страна: Япония
    Год выпуска: 2013 г.
    Жанр: приключения
    Тип: TV
    Продолжительность: 24 эп, ~25 мин. серия
    Режиссер: Имайси Хироюки
    Студия: Trigger-
    • Озвучка:
      одноголосая от Persona99
      техподдержка: goodwing-Описание: Бойкая девочка переводится в школу, где всем заправляет ученический совет. Она пытается прибрать власть к рукам кулаками, но быстро получает по морде и отправляется в кювет: оказывается, что ученики в этой школе не лыком шиты, а разнообразные школьные формы, которые они носят, дают владельцам нечеловеческие способности. Тут бы и сказке конец – ведь ученический совет контролирует самые мощные костюмы... но, рухнув мордой в мусорку, девочка натыкается на говорящую матроску, которая всеми правдами и неправдами пытается охватить собой нежные формы героини. И девочка, само собой, соглашается – ведь хотя эта форма в своём боевом варианте и выглядит откровенно неприлично, сей недостаток с лихвой компенсируется её мощнейшими боевыми характеристиками.
      Данное аниме от создателей Гуррен-Лаганн.
      Качество: HDTVRip
      Тип релиза: Без хардсаба
      Формат видео: AVI
      Автор рипа:
      Видео: 704x396, 23.976 fps, XviD ~ 2719 Kbps
      Аудио: Русская / 2 ch / AC-3 / 48 kHz / 192 Kbps / RUS(int) [озвучка: Persona99]
      Аудио 2: Японская / 2 ch / AC-3 / 48 kHz / 192 Kbps
      Субтитры: *srt, *ass Язык субтитров русский Перевод: Воздух Редактура: Алекс Миф QC: Bel-chan, Libra

    Подробные тех. данные

    ОбщееПолное имя : C:\Users\goodwing\видео\аниме\Kill la Kill\Kill la Kill - 01.aviФормат : AVIФормат/Информация : Audio Video InterleaveРазмер файла : 545 МбайтПродолжительность : 24 м.Общий поток : 3118 Кбит/секПрограмма кодирования : VirtualDubModRus 1.5.10.2 (build 2542/release)Библиотека кодирования : VirtualDubMod build 2542/release
    ВидеоИдентификатор : 0Формат : MPEG-4 VisualПрофиль формата : Advanced Simple@L5Параметр BVOP формата : 2Параметр QPel формата : НетПараметр GMC формата : Без точки переходаПараметр матрицы формата : Default (H.263)Идентификатор кодека : XVIDИдентификатор кодека/Подсказка : XviDПродолжительность : 24 м.Битрейт : 2719 Кбит/секШирина : 704 пикселяВысота : 396 пикселейСоотношение сторон : 16:9Частота кадров : 23,976 кадра/секЦветовое пространство : YUVСубдискретизация насыщенности : 4:2:0Битовая глубина : 8 битТип развёртки : ПрогрессивнаяМетод сжатия : С потерямиБит/(Пиксели*Кадры) : 0.407Размер потока : 475 Мбайт (87%)Библиотека кодирования : XviD 64
    Аудио #1Идентификатор : 1Формат : AC-3Формат/Информация : Audio Coding 3Расширение режима : CM (complete main)Параметр Endianness формата : BigИдентификатор кодека : 2000Продолжительность : 24 м.Вид битрейта : ПостоянныйБитрейт : 192 Кбит/секКаналы : 2 каналаРасположение каналов : Front: L RЧастота : 48,0 КГцБитовая глубина : 16 битМетод сжатия : С потерямиРазмер потока : 33,6 Мбайт (6%)Выравнивание : Разделение по промежуткамПродолжительность промежутка : 42 мс. (1,00 видеокадр)Время предзагрузки промежутка : 500 мс.Заголовок : Persona99
    Аудио #2Идентификатор : 2Формат : AC-3Формат/Информация : Audio Coding 3Расширение режима : CM (complete main)Параметр Endianness формата : BigИдентификатор кодека : 2000Продолжительность : 24 м.Вид битрейта : ПостоянныйБитрейт : 192 Кбит/секКаналы : 2 каналаРасположение каналов : Front: L RЧастота : 48,0 КГцБитовая глубина : 16 битМетод сжатия : С потерямиРазмер потока : 33,6 Мбайт (6%)Выравнивание : Разделение по промежуткамПродолжительность промежутка : 42 мс. (1,00 видеокадр)Время предзагрузки промежутка : 500 мс.Заголовок : Japanese

    Список эпизодов

    01. А мне б шипы как у чертополоха.
    2. Сексуально до беспамятства
    3. Белоснежный.
    4. До чего же несчастливое утро.
    5. Курок
    6. Не играйся со мной.
    7. Как тебя не полюбить, горемыка?
    08. Свои слёзы утру сам
    09. Один шанс на миллион
    10. Хочу узнать тебя получше!
    11. Не называй меня милашкой
    12. Плюнь ты на печали
    13. Ты сведёшь меня с ума
    14. Лети как ветер!
    15. На пути не стой
    16. Девушке такого не стерпеть
    17. Скажи за что?
    18. Во тьму ночи
    19. В конце пути лишь дождь
    20. От толпы безумной прочь21. Неоконченный
    22. Каково тебе, ответь?
    23. Позолота
    24. Сквозь непроглядную тьму

    Скриншоты

    Сэмпл http://yadi.sk/d/H3i25aDTAotni
    Скачать .torrent

    Скачать торрент-файл бесплатно и на максимальной скорости!

    Как скачивать? · Что такое торрент? · Рейтинг и ограничения

    !ВНИМАНИЕ!
    Сайт не распространяет и не хранит электронные версии произведений, а занимается лишь лишь предоставлением доступа к создаваемому пользователями каталогу ссылок на торрент-файлы, которые содержат только списки хеш-сумм, убедительная просьба с жалобами обращаться напрямую к пользователю. Файлы для обмена на трекере предоставлены пользователями сайта, и администрация не несёт ответственности за их содержание. Просьба не заливать файлы, защищенные авторскими правами, а также файлы нелегального содержания!

    [Профиль] [ЛС]
    Показать сообщения:    
    Ответить на тему

    Текущее время: Сегодня, в 08:51

    Часовой пояс: GMT + 2



    Вы не можете начинать темы
    Вы не можете отвечать на сообщения
    Вы не можете редактировать свои сообщения
    Вы не можете удалять свои сообщения
    Вы не можете голосовать в опросах
    Вы не можете прикреплять файлы к сообщениям
    Вы не можете скачивать файлы