BitTorrentTracker PerecTracker.org
BitTorrentTracker PerecTracker.org
    
Регистрация  ·  Вход
 
 · 
Забыли пароль?

  • Выстрел во мраке / A Shot in the Dark (Блэйк Эдвардс / Blake Edwards) [1964, Великобритания, США, комедия, детектив, HDTVRip] Dub + Original Eng

    Ответить на тему
     
    Автор Сообщение

    Columb

    Создавать темы 28-Сен-2014 08:51

           

    [Цитировать]

    Выстрел во мраке / A Shot in the Dark
    Год выпуска: 1964
    Страна: Великобритания, США
    Жанр: комедия, детектив
    Продолжительность: 01:37:51
    Перевод: Профессиональный (полное дублирование)
    Оригинальная аудиодорожка: английская
    Русские субтитры: нет
    Режиссер: Блэйк Эдвардс / Blake Edwards
    В ролях: Питер Селлерс, Элке Зоммер, Джордж Сандерс, Герберт Лом, Трейси Рид, Грэм Старк, Мойра Редмонд, Ванда Годселл, Морис Кауфманн, Энн Линн, Дэвид Лодж, Андре Маранн, Бёрт Квок и др.
    Описание: В загородном доме произошло убийство — на рубашке погибшего найдены следы губной помады, на пистолете — отпечатки пальцев, а над подушкой витает аромат духов, принадлежащей красавице Марии Гамбрелли. Сомнений нет — она убийца! Вот только неунывающий инспектор Клузо уверен — всё не так просто, как кажется. Он освобождает Марию из заключения и начинает за ней следить, попутно осознавая, что владелец особняка, где произошло убийство, знает о трагедии гораздо больше, чем говорит…
    Сэмпл: http://multi-up.com/1001941
    Качество видео: HDTVRip
    Формат видео: AVI
    Видео: XviD, 720x304, 2,35:1, 25 fps, 1727 kbps
    Аудио: AC-3, 48,0 kHz, 192 kbps, 2 ch (оба аудио)

    MediaInfo

    Общее
    Полное имя : I:\РП (рипы лучшего качетсва)\2.A.Shot.in.the.Dark.1964.HDTVRip.DUB+Original(Eng).avi
    Формат : AVI
    Формат/Информация : Audio Video Interleave
    Размер файла : 1,45 Гбайт
    Продолжительность : 1 ч. 37 м.
    Общий поток : 2126 Кбит/сек
    Программа кодирования : VirtualDubMod 1.5.10.2 (build 2540/release)
    Библиотека кодирования : VirtualDubMod build 2540/release
    Видео
    Идентификатор : 0
    Формат : MPEG-4 Visual
    Профиль формата : Simple@L5
    Параметр BVOP формата : Нет
    Параметр QPel формата : Нет
    Параметр GMC формата : Без точки перехода
    Параметр матрицы формата : Default (H.263)
    Идентификатор кодека : XVID
    Идентификатор кодека/Подсказка : XviD
    Продолжительность : 1 ч. 37 м.
    Битрейт : 1727 Кбит/сек
    Ширина : 720 пикселей
    Высота : 304 пикселя
    Соотношение сторон : 2,35:1
    Частота кадров : 25,000 кадров/сек
    Цветовое пространство : YUV
    Субдискретизация насыщенности : 4:2:0
    Битовая глубина : 8 бит
    Тип развёртки : Прогрессивная
    Метод сжатия : С потерями
    Бит/(Пиксели*Кадры) : 0.316
    Размер потока : 1,18 Гбайт (81%)
    Библиотека кодирования : XviD 64
    Аудио #1
    Идентификатор : 1
    Формат : AC-3
    Формат/Информация : Audio Coding 3
    Расширение режима : CM (complete main)
    Параметр Endianness формата : Big
    Идентификатор кодека : 2000
    Продолжительность : 1 ч. 37 м.
    Вид битрейта : Постоянный
    Битрейт : 192 Кбит/сек
    Каналы : 2 канала
    Расположение каналов : Front: L R
    Частота : 48,0 КГц
    Битовая глубина : 16 бит
    Метод сжатия : С потерями
    Размер потока : 134 Мбайт (9%)
    Выравнивание : Разделение по промежуткам
    Продолжительность промежутка : 40 мс. (1,00 видеокадр)
    Время предзагрузки промежутка : 500 мс.
    Аудио #2
    Идентификатор : 2
    Формат : AC-3
    Формат/Информация : Audio Coding 3
    Расширение режима : CM (complete main)
    Параметр Endianness формата : Big
    Идентификатор кодека : 2000
    Продолжительность : 1 ч. 37 м.
    Вид битрейта : Постоянный
    Битрейт : 192 Кбит/сек
    Каналы : 2 канала
    Расположение каналов : Front: L R
    Частота : 48,0 КГц
    Битовая глубина : 16 бит
    Метод сжатия : С потерями
    Размер потока : 134 Мбайт (9%)
    Выравнивание : Разделение по промежуткам
    Продолжительность промежутка : 40 мс. (1,00 видеокадр)
    Время предзагрузки промежутка : 500 мс.

    Скриншот c названием фильма

    Скриншоты

    Скачать .torrent

    Скачать торрент-файл бесплатно и на максимальной скорости!

    Как скачивать? · Что такое торрент? · Рейтинг и ограничения

    !ВНИМАНИЕ!
    Сайт не распространяет и не хранит электронные версии произведений, а занимается лишь лишь предоставлением доступа к создаваемому пользователями каталогу ссылок на торрент-файлы, которые содержат только списки хеш-сумм, убедительная просьба с жалобами обращаться напрямую к пользователю. Файлы для обмена на трекере предоставлены пользователями сайта, и администрация не несёт ответственности за их содержание. Просьба не заливать файлы, защищенные авторскими правами, а также файлы нелегального содержания!

    [Профиль] [ЛС]
    Показать сообщения:    
    Ответить на тему

    Текущее время: Сегодня, в 07:59

    Часовой пояс: GMT + 2



    Вы не можете начинать темы
    Вы не можете отвечать на сообщения
    Вы не можете редактировать свои сообщения
    Вы не можете удалять свои сообщения
    Вы не можете голосовать в опросах
    Вы не можете прикреплять файлы к сообщениям
    Вы не можете скачивать файлы