BitTorrentTracker PerecTracker.org
BitTorrentTracker PerecTracker.org
    
Регистрация  ·  Вход
 
 · 
Забыли пароль?

  • Все верные ходы / Верные ходы / All the Right Moves (Майкл Чэпмен / Michael Chapman) [1983, США, драма, мелодрама, спорт, BDRip] MVO (1 Канал) + Original Eng + subs (rus, eng SDH)

    Ответить на тему
     
    Автор Сообщение

    Columb

    Создавать темы 28-Сен-2014 08:47

           

    [Цитировать]

    Все верные ходы / Верные ходы / All the Right Moves-Релиз от HQCLUB
    Год выпуска: 1983
    Страна: США
    Жанр: драма, мелодрама, спорт
    Продолжительность: 01:30:25
    Перевод: Профессиональный (многоголосый, закадровый) Первый канал
    Оригинальная звуковая дорожка: English
    Субтитры: Русские, Английские SDH (внешние srt*)-Режиссер: Майкл Чэпмен / Michael Chapman
    В ролях: Том Круз, Крэйг Т. Нельсон, Лиа Томпсон, Чарльз Чоффи, Гари Грэхэм, Пол Карафотс, Крис Пенн, Сэнди Фэйзон, Джеймс А. Баффико, Мел Уинклер
    О фильме: Звезда местной школьной команды по футболу Стефан Джорджевич живет мечтой о том, чтобы в один прекрасный день вырваться из родного захолустного городишки в Западной Пенсильвании.
    Но у не менее амбициозного тренера Никерсона свои планы на будущее юноши, поэтому дорога к мечте обещает быть довольно тернистой. А тут еще и внезапно вспыхнувшее чувство к красавице Лизе серьезно осложняет дело.-Релиз:
    Автор: sociolog_melvas
    Качество: BDRip (источник: Виталя_А / BDRemux / 1080p)
    Формат: AVI
    Видео: 704x384 (1.83:1), 23,976 fps, XviD build 65 ~1708 kbps avg, 0.26 bit/pixel
    Аудио: #1 48 kHz, AC3 Dolby Digital, 2/0 (L,R), ~192.00 kbps avg rus
    Аудио: #2 48 kHz, AC3 Dolby Digital, 2/0 (L,R), ~192.00 kbps avg eng
    Размер: 1487.25 Mb (1/3 DVD-R)
    Скачать: Семпл-

    Кадры из фильма

    -

    Mi

    Формат : AVI
    Формат/Информация : Audio Video Interleave
    Размер файла : 1,45 Гбайт
    Продолжительность : 1 ч. 30 м.
    Общий поток : 2299 Кбит/сек
    Название фильма : Все верные ходы / All the Right Moves (1983) BDRip
    Режиссёр : sociolog_melvas
    Жанр : драма, мелодрама, спорт
    Программа кодирования : VirtualDubMod 1.5.10.2 (build 2540/release)
    Примечание : 27.09.2014
    Видео
    Идентификатор : 0
    Формат : MPEG-4 Visual
    Профиль формата : Advanced Simple@L5
    Параметр BVOP формата : 1
    Параметр QPel формата : Нет
    Параметр GMC формата : Без точки перехода
    Параметр матрицы формата : Выборочная
    Идентификатор кодека : XVID
    Идентификатор кодека/Подсказка : XviD
    Продолжительность : 1 ч. 30 м.
    Битрейт : 1709 Кбит/сек
    Ширина : 704 пикселя
    Высота : 384 пикселя
    Соотношение сторон : 1,85:1
    Частота кадров : 23,976 кадра/сек
    Цветовое пространство : YUV
    Субдискретизация насыщенности : 4:2:0
    Битовая глубина : 8 бит
    Тип развёртки : Прогрессивная
    Метод сжатия : С потерями
    Бит/(Пиксели*Кадры) : 0.264
    Размер потока : 1,08 Гбайт (74%)
    Библиотека кодирования : XviD 65
    Аудио #1
    Идентификатор : 1
    Формат : AC-3
    Формат/Информация : Audio Coding 3
    Расширение режима : CM (complete main)
    Параметр Endianness формата : Big
    Идентификатор кодека : 2000
    Продолжительность : 1 ч. 30 м.
    Вид битрейта : Постоянный
    Битрейт : 192 Кбит/сек
    Каналы : 2 канала
    Расположение каналов : Front: L R
    Частота : 48,0 КГц
    Битовая глубина : 16 бит
    Метод сжатия : С потерями
    Размер потока : 124 Мбайт (8%)
    Выравнивание : Разделение по промежуткам
    Продолжительность промежутка : 42 мс. (1,00 видеокадр)
    Время предзагрузки промежутка : 500 мс.
    Аудио #2
    Идентификатор : 2
    Формат : AC-3
    Формат/Информация : Audio Coding 3
    Расширение режима : CM (complete main)
    Параметр Endianness формата : Big
    Идентификатор кодека : 2000
    Продолжительность : 1 ч. 30 м.
    Вид битрейта : Постоянный
    Битрейт : 384 Кбит/сек
    Каналы : 6 каналов
    Расположение каналов : Front: L C R, Side: L R, LFE
    Частота : 48,0 КГц
    Битовая глубина : 16 бит
    Метод сжатия : С потерями
    Размер потока : 248 Мбайт (17%)
    Выравнивание : Разделение по промежуткам
    Продолжительность промежутка : 42 мс. (1,00 видеокадр)
    Время предзагрузки промежутка : 500 мс.
    -
    Скачать .torrent

    Скачать торрент-файл бесплатно и на максимальной скорости!

    Как скачивать? · Что такое торрент? · Рейтинг и ограничения

    !ВНИМАНИЕ!
    Сайт не распространяет и не хранит электронные версии произведений, а занимается лишь лишь предоставлением доступа к создаваемому пользователями каталогу ссылок на торрент-файлы, которые содержат только списки хеш-сумм, убедительная просьба с жалобами обращаться напрямую к пользователю. Файлы для обмена на трекере предоставлены пользователями сайта, и администрация не несёт ответственности за их содержание. Просьба не заливать файлы, защищенные авторскими правами, а также файлы нелегального содержания!

    [Профиль] [ЛС]
    Показать сообщения:    
    Ответить на тему

    Текущее время: Сегодня, в 16:36

    Часовой пояс: GMT + 2



    Вы не можете начинать темы
    Вы не можете отвечать на сообщения
    Вы не можете редактировать свои сообщения
    Вы не можете удалять свои сообщения
    Вы не можете голосовать в опросах
    Вы не можете прикреплять файлы к сообщениям
    Вы не можете скачивать файлы