BitTorrentTracker PerecTracker.org
BitTorrentTracker PerecTracker.org
    
Регистрация  ·  Вход
 
 · 
Забыли пароль?

  • Пятьдесят на пятьдесят / Fifty/Fifty (Чарльз Мартин Смит / Charles Martin Smith) [1992, США, боевик, DVDRip] MVO (компания "Человек" С-Пб) + Original Eng

    Ответить на тему
     
    Автор Сообщение

    Columb

    Создавать темы 28-Сен-2014 08:43

           

    [Цитировать]

    Пятьдесят на пятьдесят / Fifty/Fifty
    Страна: США
    Жанр: боевик
    Год выпуска: 1992
    Продолжительность: 01:40:53
    Перевод: Профессиональный (многоголосый закадровый) компания "Человек" С.-Пб.
    Cубтитры: нет
    Оригинальная аудиодорожка: английский
    Режиссер: Чарльз Мартин Смит / Charles Martin Smith
    В ролях: Питер Уэллер, Роберт Хэйс, Чарльз Мартин Смит, Рамона Рахман, Кэй Тонг Лим, Дом Магуили
    Описание: Джейк и Фрэнк с группой необученных партизан отправляются свергать Южноазиатского диктатора. Один руководит боевиками, другой всех развлекает, и оба участвуют в многочисленных приключениях.
    Борясь с обстоятельствами и с собой, эти два парня становятся теми, кем они никогда и не думали стать — героями.
    Доп. информация:
    Видеоряд взят с другого трекера.
    За звуковую дорожку большое спасибо Fikaloid.
    За синхронизацию звуковой дорожки огромная благодарность JUSTKANT.
    Фильм озвучен киновидеокомпанией "Человек", Санкт-Петербург.
    Мужские роли озвучивали Сергей Паршин, Николай Буров и др.

    Сэмпл: http://sendfile.su/1028156
    Качество видео: DVDRip
    Формат видео: AVI
    Видео: 704x528, 23.976 fps, MPEG-4 Visual, 1698 Kbps, XviD 1.1.2
    Аудио 1: 48 KHz, AC3, 2 ch, 192 Kbps
    Аудио 2: 48 KHz, AC3, 2 ch, 192 Kbps

    MediaInfo

    General
    Complete name : C:\Users\Сергей\Downloads\Пятьдесят на пятьдесят.avi
    Format : AVI
    Format/Info : Audio Video Interleave
    File size : 1.48 GiB
    Duration : 1h 40mn
    Overall bit rate : 2 096 Kbps
    Writing application : VirtualDubMod 1.5.10.2 (build 2540/release)
    Writing library : VirtualDubMod build 2540/release
    Video
    ID : 0
    Format : MPEG-4 Visual
    Format profile : Simple@L3
    Format settings, BVOP : No
    Format settings, QPel : No
    Format settings, GMC : No warppoints
    Format settings, Matrix : Default (H.263)
    Codec ID : XVID
    Codec ID/Hint : XviD
    Duration : 1h 40mn
    Bit rate : 1 698 Kbps
    Width : 704 pixels
    Height : 528 pixels
    Display aspect ratio : 4:3
    Frame rate : 23.976 fps
    Color space : YUV
    Chroma subsampling : 4:2:0
    Bit depth : 8 bits
    Scan type : Progressive
    Compression mode : Lossy
    Bits/(Pixel*Frame) : 0.191
    Stream size : 1.20 GiB (81%)
    Writing library : XviD 1.1.2 (UTC 2006-11-01)
    Audio #1
    ID : 1
    Format : AC-3
    Format/Info : Audio Coding 3
    Mode extension : CM (complete main)
    Format settings, Endianness : Big
    Codec ID : 2000
    Duration : 1h 40mn
    Bit rate mode : Constant
    Bit rate : 192 Kbps
    Channel(s) : 2 channels
    Channel positions : Front: L R
    Sampling rate : 48.0 KHz
    Bit depth : 16 bits
    Compression mode : Lossy
    Stream size : 139 MiB (9%)
    Alignment : Split accross interleaves
    Interleave, duration : 42 ms (1.00 video frame)
    Interleave, preload duration : 500 ms
    Audio #2
    ID : 2
    Format : AC-3
    Format/Info : Audio Coding 3
    Mode extension : CM (complete main)
    Format settings, Endianness : Big
    Codec ID : 2000
    Duration : 1h 40mn
    Bit rate mode : Constant
    Bit rate : 192 Kbps
    Channel(s) : 2 channels
    Channel positions : Front: L R
    Sampling rate : 48.0 KHz
    Bit depth : 16 bits
    Compression mode : Lossy
    Stream size : 139 MiB (9%)
    Alignment : Split accross interleaves
    Interleave, duration : 42 ms (1.00 video frame)
    Interleave, preload duration : 500 ms

    Скриншоты

    Скачать .torrent

    Скачать торрент-файл бесплатно и на максимальной скорости!

    Как скачивать? · Что такое торрент? · Рейтинг и ограничения

    !ВНИМАНИЕ!
    Сайт не распространяет и не хранит электронные версии произведений, а занимается лишь лишь предоставлением доступа к создаваемому пользователями каталогу ссылок на торрент-файлы, которые содержат только списки хеш-сумм, убедительная просьба с жалобами обращаться напрямую к пользователю. Файлы для обмена на трекере предоставлены пользователями сайта, и администрация не несёт ответственности за их содержание. Просьба не заливать файлы, защищенные авторскими правами, а также файлы нелегального содержания!

    [Профиль] [ЛС]
    Показать сообщения:    
    Ответить на тему

    Текущее время: Сегодня, в 08:06

    Часовой пояс: GMT + 2



    Вы не можете начинать темы
    Вы не можете отвечать на сообщения
    Вы не можете редактировать свои сообщения
    Вы не можете удалять свои сообщения
    Вы не можете голосовать в опросах
    Вы не можете прикреплять файлы к сообщениям
    Вы не можете скачивать файлы