Register  ·  Log in
Forgot password?

  • Намерение - убить / Intent to Kill (Чарлз Кэнгэнис / Charles Kanganis) [1992, США, Боевик, DVDRip] AVO (В. Горчаков)

    Reply to topic
    Author Message


    Post 28-Sep-2014 09:42



    -Намерение - убитьIntent to Kill--Страна: США
    Жанр: Боевик
    Год выпуска: 1992
    Продолжительность: 01:34:30-Перевод: Авторский (одноголосый закадровый),В Горчаков
    Cубтитры: нет
    Оригинальная аудиодорожка: нет-Режиссер: Чарлз Кэнгэнис / Charles Kanganis-В ролях: Трейси Лордс / Traci Lords, Анджело Тиффе / Angelo Tiffe, Скотт Паттерсон / Scott Patterson, Луис А. Перез / Luis A. Perez, Сабрина Ферран / Sabrina Ferrand, Майкл Фоли / Michael Foley, Сэм Траволта / Sam Travolta-Описание: Красивая женщина, рожденная в жестоком мире наркотиков, бросает своего отца-алкоголика ради того чтобы выжить. Став полицейским, она с помощью своего обаяния, интеллекта и пистолета выходит на след банды безжалостных убийц, которые пытаются убить её.-Сэмпл:Качество видео: DVDRip
    Формат видео: AVI-Видео: 624х480 (4:3), XviD build 73 ~ 2 011 kbps, 23.976 fps, 0.28 bit/pixel
    Аудио: 48 kHz, AC3 Dolby Digital, 2/0 (L,R), ~192.00 kbps avg (В. Горчаков)--Цитата:

    Звуковая дорожка с переводом Алексея Михалева появилась благодаря Nekontroliruemij_devil


    Format : AVI
    Format/Info : Audio Video Interleave
    File size : 1.46 GiB
    Duration : 1h 34mn
    Overall bit rate : 2 212 Kbps
    Writing application : VirtualDubMod (build 2540/release)
    Writing library : VirtualDubMod build 2540/release
    ID : 0
    Format : MPEG-4 Visual
    Format profile : Advanced Simple@L5
    Format settings, BVOP : 1
    Format settings, QPel : No
    Format settings, GMC : No warppoints
    Format settings, Matrix : Custom
    Codec ID : XVID
    Codec ID/Hint : XviD
    Duration : 1h 34mn
    Bit rate : 2 011 Kbps
    Width : 624 pixels
    Height : 480 pixels
    Display aspect ratio : 4:3
    Frame rate : 23.976 fps
    Color space : YUV
    Chroma subsampling : 4:2:0
    Bit depth : 8 bits
    Scan type : Progressive
    Compression mode : Lossy
    Bits/(Pixel*Frame) : 0.280
    Stream size : 1.33 GiB (91%)
    Writing library : XviD 73
    ID : 1
    Format : AC-3
    Format/Info : Audio Coding 3
    Mode extension : CM (complete main)
    Format settings, Endianness : Big
    Codec ID : 2000
    Duration : 1h 34mn
    Bit rate mode : Constant
    Bit rate : 192 Kbps
    Channel(s) : 2 channels
    Channel positions : Front: L R
    Sampling rate : 48.0 KHz
    Bit depth : 16 bits
    Compression mode : Lossy
    Stream size : 130 MiB (9%)
    Alignment : Split accross interleaves
    Interleave, duration : 42 ms (1.00 video frame)
    Interleave, preload duration : 500 ms
    Title : AVO Gorchakov (Nekontroliruemij_devil)


    Download .torrent

    Download free and at maximum speed!

    How to Download? · What is a torrent? · Ratings and Limitations

    The site does not extend and does not store electronic(digital) versions of products, and only gives access to a reference catalogue created by users on torrent-files which contain only lists of the hash-sums, the earnest entreaty, with complaints(abuse) to access directly to the user. Files for an exchange on tracker are given by users of a site, and the administration does not bear the responsibility for their maintenance. The request to not fill in the files protected by copyrights, and also files of the illegal maintenance!

    [Profile] [PM]
    Display posts from previous:    
    Reply to topic

    The time now is: Today 00:30

    All times are GMT + 3 Hours

    You cannot post new topics in this forum
    You cannot reply to topics in this forum
    You cannot edit your posts in this forum
    You cannot delete your posts in this forum
    You cannot vote in polls in this forum
    You cannot attach files in this forum
    You cannot download files in this forum