BitTorrentTracker PerecTracker.org
BitTorrentTracker PerecTracker.org
    
Регистрация  ·  Вход
 
 · 
Забыли пароль?

  • Намерение - убить / Intent to Kill (Чарлз Кэнгэнис / Charles Kanganis) [1992, США, Боевик, DVDRip] AVO (В. Горчаков)

    Ответить на тему
     
    Автор Сообщение

    Columb

    Создавать темы 28-Сен-2014 08:42

           

    [Цитировать]

    -Намерение - убитьIntent to Kill--Страна: США
    Жанр: Боевик
    Год выпуска: 1992
    Продолжительность: 01:34:30-Перевод: Авторский (одноголосый закадровый),В Горчаков
    Cубтитры: нет
    Оригинальная аудиодорожка: нет-Режиссер: Чарлз Кэнгэнис / Charles Kanganis-В ролях: Трейси Лордс / Traci Lords, Анджело Тиффе / Angelo Tiffe, Скотт Паттерсон / Scott Patterson, Луис А. Перез / Luis A. Perez, Сабрина Ферран / Sabrina Ferrand, Майкл Фоли / Michael Foley, Сэм Траволта / Sam Travolta-Описание: Красивая женщина, рожденная в жестоком мире наркотиков, бросает своего отца-алкоголика ради того чтобы выжить. Став полицейским, она с помощью своего обаяния, интеллекта и пистолета выходит на след банды безжалостных убийц, которые пытаются убить её.-Сэмпл: https://yadi.sk/i/wPDOzKpAbhWFQ-Качество видео: DVDRip
    Формат видео: AVI-Видео: 624х480 (4:3), XviD build 73 ~ 2 011 kbps, 23.976 fps, 0.28 bit/pixel
    Аудио: 48 kHz, AC3 Dolby Digital, 2/0 (L,R), ~192.00 kbps avg (В. Горчаков)--Цитата:
    Цитата:

    Звуковая дорожка с переводом Алексея Михалева появилась благодаря Nekontroliruemij_devil
    -

    MediaInfo

    General
    Format : AVI
    Format/Info : Audio Video Interleave
    File size : 1.46 GiB
    Duration : 1h 34mn
    Overall bit rate : 2 212 Kbps
    Writing application : VirtualDubMod 1.5.10.2 (build 2540/release)
    Writing library : VirtualDubMod build 2540/release
    Video
    ID : 0
    Format : MPEG-4 Visual
    Format profile : Advanced Simple@L5
    Format settings, BVOP : 1
    Format settings, QPel : No
    Format settings, GMC : No warppoints
    Format settings, Matrix : Custom
    Codec ID : XVID
    Codec ID/Hint : XviD
    Duration : 1h 34mn
    Bit rate : 2 011 Kbps
    Width : 624 pixels
    Height : 480 pixels
    Display aspect ratio : 4:3
    Frame rate : 23.976 fps
    Color space : YUV
    Chroma subsampling : 4:2:0
    Bit depth : 8 bits
    Scan type : Progressive
    Compression mode : Lossy
    Bits/(Pixel*Frame) : 0.280
    Stream size : 1.33 GiB (91%)
    Writing library : XviD 73
    Audio
    ID : 1
    Format : AC-3
    Format/Info : Audio Coding 3
    Mode extension : CM (complete main)
    Format settings, Endianness : Big
    Codec ID : 2000
    Duration : 1h 34mn
    Bit rate mode : Constant
    Bit rate : 192 Kbps
    Channel(s) : 2 channels
    Channel positions : Front: L R
    Sampling rate : 48.0 KHz
    Bit depth : 16 bits
    Compression mode : Lossy
    Stream size : 130 MiB (9%)
    Alignment : Split accross interleaves
    Interleave, duration : 42 ms (1.00 video frame)
    Interleave, preload duration : 500 ms
    Title : AVO Gorchakov (Nekontroliruemij_devil)

    Скриншоты

    -
    Скачать .torrent

    Скачать торрент-файл бесплатно и на максимальной скорости!

    Как скачивать? · Что такое торрент? · Рейтинг и ограничения

    !ВНИМАНИЕ!
    Сайт не распространяет и не хранит электронные версии произведений, а занимается лишь лишь предоставлением доступа к создаваемому пользователями каталогу ссылок на торрент-файлы, которые содержат только списки хеш-сумм, убедительная просьба с жалобами обращаться напрямую к пользователю. Файлы для обмена на трекере предоставлены пользователями сайта, и администрация не несёт ответственности за их содержание. Просьба не заливать файлы, защищенные авторскими правами, а также файлы нелегального содержания!

    [Профиль] [ЛС]
    Показать сообщения:    
    Ответить на тему

    Текущее время: Сегодня, в 06:08

    Часовой пояс: GMT + 2



    Вы не можете начинать темы
    Вы не можете отвечать на сообщения
    Вы не можете редактировать свои сообщения
    Вы не можете удалять свои сообщения
    Вы не можете голосовать в опросах
    Вы не можете прикреплять файлы к сообщениям
    Вы не можете скачивать файлы