BitTorrentTracker PerecTracker.org
BitTorrentTracker PerecTracker.org
    
Регистрация  ·  Вход
 
 · 
Забыли пароль?

  • МастерШеф - 3 / MasterChief (3 сезон) Выпуск 1-18 из 18 (Эктор Хименес-Браво, Татьяна Литвинова, Николай Тищенко) [2013, кулинарное телешоу, IPTVRip]

    Ответить на тему
     
    Автор Сообщение

    rechyn

    Создавать темы 19-Сен-2014 20:56

           

    [Цитировать]

    МастерШеф -3 / MasterChief (3 сезон) Выпуск 1-18 из 18-Год выпуска: 2013
    Страна: Украина
    Жанр: кулинарное телешоу
    Продолжительность: ~2:50:00
    Перевод: Не требуется
    Русские субтитры: нет
    Режиссер: Эктор Хименес-Браво, Татьяна Литвинова, Николай Тищенко
    Описание: «МастерШеф» – масштабное кулинарное реалити-шоу, в котором 20 самых достойных поваров-любителей, отобранных для участия в шоу, соревнуются за звание лучшего шеф-повара Украины и денежное вознаграждение в 500 000 гривен. Также победитель проекта получает возможность обучения в лучшей кулинарной школе Парижа Le Cordon Bleu.
    Критерий отбора участников таков: человек, желающий попасть в проект, должен уметь и фанатично любить готовить. Специальное образование и опыт работы не требуются. Кастинг пройдет тот конкурсант, блюдо которого придется по вкусу судьям.
    Именно судьям предстоит испытывать и проверять участников шоу: не только на мастерство, но и на сообразительность, выдержку, стрессоустойчивость, дисциплинированность, умение работать в команде и т.д. Эти качества, необходимые в профессии шеф-повара, судьи будут определять в процессе выполнения участниками специальных заданий. Те, кто преодолеют испытания, проходят в следующий этап. Самые слабые участники навсегда покидают проект.
    Все раздачи МастерШеф
    Качество: IPTVRip
    Формат: AVI
    Видео: XviD, 720x440 (1.636:1), 25.000 fps, 1300 Кбит/сек
    Аудио: 48,0 КГц, MPEG-1 Audio layer 3 2 канала, 192 Кбит/сек

    Список выпусков/серий

    1 выпуск от 28.08.13

    2 выпуск от 04.09.13

    3 выпуск от 11.09.13

    4 выпуск + Кулинарная дуель Мария Рак и Евгений Литвинкович от 18.09.13

    Кулинарная дуэль

    5 выпуск + Кулинарная дуель Кристина Коц-Готлиб (экс-ВИАГРА) и Наталья Фаллион (Лисапетный батальон) от 25.09.13

    Кулинарная дуэль

    6 выпуск + Кулинарная дуель Холостячки от 2.10.13

    Кулинарная дуэль

    7 выпуск + Кулинарная дуель Макс Барских и Санта Димопулос от 9.10.13

    Кулинарная дуэль

    8 выпуск + Кулинарная дуель Снежана Егорова и кто-то из известных женщин от 16.10.13

    Кулинарная дуэль

    9 выпуск + Кулинарная дуель от 23.10.13

    10 выпуск + Кулинарная дуель от 30.10.13

    Кулинарная дуэль

    11 выпуск + Кулинарная дуель семья самого честного человека в Украине Давида Джиджилава и его супруги Катерина от 06.11.13

    Кулинарная дуэль

    12 выпуск + Кулинарная дуель от 13.11.13

    13 выпуск + Кулинарная дуель от 20.11.13

    14 выпуск + Кулинарная дуель от 27.11.13

    15 выпуск + Кулинарная дуель от 4.12.13

    16 выпуск + Кулинарная дуель от 11.12.13

    17 выпуск + Кулинарная дуель сестры Наталья и Ольга Сумская от 18.12.13

    18 выпуск ФИНАЛ + Кулинарная дуель Николай Тищенко и Татьяна Литвинова от 25.12.13

    Mediainfo

    Общее
    Полное имя : Master-shef 3 Media Portal reliz\04. Master-shef 3 Media Portal reliz.avi
    Формат : AVI
    Формат/Информация : Audio Video Interleave
    Профиль формата : OpenDML
    Размер файла : 2,07 Гбайт
    Продолжительность : 2 ч. 44 м.
    Общий поток : 1804 Кбит/сек
    Библиотека кодирования : VirtualDub build 32842/release
    Видео
    Идентификатор : 0
    Формат : MPEG-4 Visual
    Профиль формата : Advanced Simple@L5
    Параметр BVOP формата : 2
    Параметр QPel формата : Нет
    Параметр GMC формата : Без точки перехода
    Параметр матрицы формата : Default (H.263)
    Режим смешивания : Сжатый битовый поток
    Идентификатор кодека : XVID
    Идентификатор кодека/Подсказка : XviD
    Продолжительность : 2 ч. 44 м.
    Битрейт : 1600 Кбит/сек
    Ширина : 720 пикселей
    Высота : 440 пикселей
    Соотношение сторон : 1,636
    Частота кадров : 25,000 кадров/сек
    Цветовое пространство : YUV
    Субдискретизация насыщенности : 4:2:0
    Битовая глубина : 8 бит
    Тип развёртки : Прогрессивная
    Метод сжатия : С потерями
    Бит/(Пиксели*Кадры) : 0.202
    Размер потока : 1,84 Гбайт (89%)
    Библиотека кодирования : XviD 64
    Аудио
    Идентификатор : 1
    Формат : MPEG Audio
    Версия формата : Version 1
    Профиль формата : Layer 3
    Режим : Joint stereo
    Идентификатор кодека : 55
    Идентификатор кодека/Подсказка : MP3
    Продолжительность : 2 ч. 44 м.
    Вид битрейта : Постоянный
    Битрейт : 192 Кбит/сек
    Каналы : 2 канала
    Частота : 48,0 КГц
    Метод сжатия : С потерями
    Размер потока : 226 Мбайт (11%)
    Выравнивание : Разделение по промежуткам
    Продолжительность промежутка : 40 мс. (1,00 видеокадр)
    Время предзагрузки промежутка : 500 мс.

    s> Как закачать отдельный файл из торрента или докачать ранее пропущенные файлы торрента. s<
    Скачать .torrent

    Скачать торрент-файл бесплатно и на максимальной скорости!

    Как скачивать? · Что такое торрент? · Рейтинг и ограничения

    !ВНИМАНИЕ!
    Сайт не распространяет и не хранит электронные версии произведений, а занимается лишь лишь предоставлением доступа к создаваемому пользователями каталогу ссылок на торрент-файлы, которые содержат только списки хеш-сумм, убедительная просьба с жалобами обращаться напрямую к пользователю. Файлы для обмена на трекере предоставлены пользователями сайта, и администрация не несёт ответственности за их содержание. Просьба не заливать файлы, защищенные авторскими правами, а также файлы нелегального содержания!


    _________________
    [Профиль] [ЛС]
    Показать сообщения:    
    Ответить на тему

    Текущее время: Сегодня, в 04:08

    Часовой пояс: GMT + 2



    Вы не можете начинать темы
    Вы не можете отвечать на сообщения
    Вы не можете редактировать свои сообщения
    Вы не можете удалять свои сообщения
    Вы не можете голосовать в опросах
    Вы не можете прикреплять файлы к сообщениям
    Вы не можете скачивать файлы