BitTorrentTracker PerecTracker.org
BitTorrentTracker PerecTracker.org
    
Регистрация  ·  Вход
 
 · 
Забыли пароль?

  • Медовый месяц / Honeymoon (Ли Джаньяк / Leigh Janiak) [2014, США, ужасы, HDTVRip-AVC] VO (R.A.I.M) + Sub Eng

    Ответить на тему
     
    Автор Сообщение

    Columb

    Создавать темы 18-Сен-2014 12:16

           

    [Цитировать]

    Медовый месяц / Honeymoon
    Страна: США
    Жанр: ужасы
    Год выпуска: 2014
    Продолжительность: 01:27:28
    Перевод: Одноголосый закадровый R.A.I.M
    Cубтитры: английские
    Оригинальная аудиодорожка: нет
    Режиссер: Ли Джаньяк / Leigh Janiak
    В ролях: Роуз Лесли, Гарри Тредэвэй, Бен Хубер, Ханна Браун, Генри Лоуренс
    Описание: Молодожёны Пол и Би отправляются в удалённое местечко у озера, чтобы провести там медовый месяц. Вскоре после прибытия Пол находит Би блуждающей посреди ночи в лесу. И по мере того, как она становится всё более отчуждённой, Пол начинает подозревать, что это был не просто лунатизм и в лесу произошло что-то ужасное…


    Качество видео: HDTVRip-AVC / Honeymoon.2014.L1.HDTV720p.mkv
    Формат видео: MKV
    Видео: MPEG-4 AVC Video / 2 002 Кбит/сек / 960x516 / 23.976 / High Profile 3.2
    Аудио: AC3 / Dolby Digital Audio / 5.1 / 48 kHz / 384 kbps |R.A.I.M|
    Формат субтитров: softsub (SRT)

    MediaInfo

    General
    Unique ID                                : 251852955769115029377192400647009454185 (0xBD791D6ABAD327BD9E8409E330F1C869)
    Complete name                            : Honeymoon.2014.HDTVRip-AVC_[rutracker.org].mkv
    Format                                   : Matroska
    Format version                           : Version 4 / Version 2
    File size                                : 1.46 GiB
    Duration                                 : 1h 27mn
    Overall bit rate                         : 2 387 Kbps
    Movie name                               : Honeymoon.2014
    Encoded date                             : UTC 2014-09-17 15:36:42
    Writing application                      : mkvmerge v7.1.0 ('Good Love') 64bit built on Jul 27 2014 13:06:55
    Writing library                          : libebml v1.3.0 + libmatroska v1.4.1
    DURATION                                 : 01:24:14.482000000
    NUMBER_OF_FRAMES                         : 1330
    NUMBER_OF_BYTES                          : 29004
    _STATISTICS_WRITING_APP                  : mkvmerge v7.1.0 ('Good Love') 64bit built on Jul 27 2014 13:06:55
    _STATISTICS_WRITING_DATE_UTC             : 2014-09-17 15:36:42
    _STATISTICS_TAGS                         : BPS DURATION NUMBER_OF_FRAMES NUMBER_OF_BYTES
    Video
    ID                                       : 1
    Format                                   : AVC
    Format/Info                              : Advanced Video Codec
    Format profile                           : High@L3.2
    Format settings, CABAC                   : Yes
    Format settings, ReFrames                : 10 frames
    Codec ID                                 : V_MPEG4/ISO/AVC
    Duration                                 : 1h 27mn
    Bit rate                                 : 2 002 Kbps
    Width                                    : 960 pixels
    Height                                   : 516 pixels
    Display aspect ratio                     : 1.85:1
    Frame rate mode                          : Constant
    Frame rate                               : 23.976 fps
    Color space                              : YUV
    Chroma subsampling                       : 4:2:0
    Bit depth                                : 8 bits
    Scan type                                : Progressive
    Bits/(Pixel*Frame)                       : 0.169
    Stream size                              : 1.19 GiB (82%)
    Title                                    : Honeymoon.2014.HDTVRip-AVC_[rutracker.org]
    Writing library                          : x264 core 142 r2431 ac76440
    Encoding settings                        : cabac=1 / ref=10 / deblock=1:-2:-1 / analyse=0x3:0x133 / me=umh / subme=11 / psy=1 / psy_rd=0.95:0.05 / mixed_ref=1 / me_range=48 / chroma_me=1 / trellis=2 / 8x8dct=1 / cqm=0 / deadzone=21,11 / fast_pskip=0 / chroma_qp_offset=-3 / threads=6 / lookahead_threads=1 / sliced_threads=0 / nr=0 / decimate=1 / interlaced=0 / bluray_compat=0 / constrained_intra=0 / bframes=9 / b_pyramid=2 / b_adapt=2 / b_bias=0 / direct=3 / weightb=1 / open_gop=0 / weightp=2 / keyint=240 / keyint_min=23 / scenecut=40 / intra_refresh=0 / rc_lookahead=60 / rc=2pass / mbtree=1 / bitrate=2002 / ratetol=1.0 / qcomp=0.60 / qpmin=0 / qpmax=69 / qpstep=4 / cplxblur=20.0 / qblur=0.5 / vbv_maxrate=25000 / vbv_bufsize=25000 / nal_hrd=none / filler=0 / ip_ratio=1.40 / aq=2:0.90
    Language                                 : English
    Default                                  : Yes
    Forced                                   : No
    Matrix coefficients                      : BT.709
    Audio
    ID                                       : 2
    Format                                   : AC-3
    Format/Info                              : Audio Coding 3
    Mode extension                           : CM (complete main)
    Format settings, Endianness              : Big
    Codec ID                                 : A_AC3
    Duration                                 : 1h 27mn
    Bit rate mode                            : Constant
    Bit rate                                 : 384 Kbps
    Channel(s)                               : 6 channels
    Channel positions                        : Front: L C R, Side: L R, LFE
    Sampling rate                            : 48.0 KHz
    Bit depth                                : 16 bits
    Compression mode                         : Lossy
    Stream size                              : 240 MiB (16%)
    Title                                    : Одноголосый закадровый [R.A.I.M]
    Language                                 : Russian
    Default                                  : Yes
    Forced                                   : No
    Text
    ID                                       : 3
    Format                                   : UTF-8
    Codec ID                                 : S_TEXT/UTF8
    Codec ID/Info                            : UTF-8 Plain Text
    Language                                 : English
    Default                                  : No
    Forced                                   : No
    Menu
    00:00:00.000                             : en:Chapter 1
    00:07:36.039                             : en:Chapter 2
    00:12:23.076                             : en:Chapter 3
    00:16:10.053                             : en:Chapter 4
    00:21:20.030                             : en:Chapter 5
    00:24:45.068                             : en:Chapter 6
    00:29:30.020                             : en:Chapter 7
    00:35:44.060                             : en:Chapter 8
    00:39:36.042                             : en:Chapter 9
    00:44:18.074                             : en:Chapter 10
    00:52:03.081                             : en:Chapter 11
    00:57:51.012                             : en:Chapter 12
    01:03:10.040                             : en:Chapter 13
    01:07:24.002                             : en:Chapter 14
    01:16:45.063                             : en:Chapter 15
    01:20:22.030                             : en:Chapter 16

    Скриншоты

    Скачать .torrent

    Скачать торрент-файл бесплатно и на максимальной скорости!

    Как скачивать? · Что такое торрент? · Рейтинг и ограничения

    !ВНИМАНИЕ!
    Сайт не распространяет и не хранит электронные версии произведений, а занимается лишь лишь предоставлением доступа к создаваемому пользователями каталогу ссылок на торрент-файлы, которые содержат только списки хеш-сумм, убедительная просьба с жалобами обращаться напрямую к пользователю. Файлы для обмена на трекере предоставлены пользователями сайта, и администрация не несёт ответственности за их содержание. Просьба не заливать файлы, защищенные авторскими правами, а также файлы нелегального содержания!

    [Профиль] [ЛС]
    Показать сообщения:    
    Ответить на тему

    Текущее время: Сегодня, в 02:03

    Часовой пояс: GMT + 2



    Вы не можете начинать темы
    Вы не можете отвечать на сообщения
    Вы не можете редактировать свои сообщения
    Вы не можете удалять свои сообщения
    Вы не можете голосовать в опросах
    Вы не можете прикреплять файлы к сообщениям
    Вы не можете скачивать файлы